Начать новую тему Ответить на тему
Статистика раздачи
Размер: 335.78 МБ | Добавлен: 26 июн 2020, 18:52 | Скачали: 0
Сидеров: 0  [0 байт/сек]    Личеров: 0  [0 байт/сек]
Пред. тема | След. тема 

Автор
Сообщение

СообщениеДобавлено: 26 июн 2020, 18:52 

Ответить с цитатой 

SYNTEC - Upper World
Жанр: EBM, Synthpop
Год выпуска диска: 1995
Производитель диска: Germany
Аудио кодек: FLAC
Тип рипа: image+.cue
Битрейт аудио: lossless
Продолжительность: 00:47:32
Наличие сканов в содержимом раздачи: да
Трэклист:

Label: Machinery Records
Country: Germany
Released: 1995
Style: Synth-pop
1 Angel Angel (3:59)
2 Monster In My Pocket (3:53)
3 Stars In The Sky (5:02)
4 Try To Be Me (3:53)
5 Eternity (3:18)
6 Talk To The Upper World (4:32)
7 The White Man (4:24)
8 Metropolis (4:59)
9 It's A Lie (4:56)
10 Break My Heart (4:27)
11 No Brain, No Headache (4:05)
Exact Audio Copy V0.99 prebeta 4 from 23. January 2008
Отчёт EAC об извлечении, выполненном 18. января 2009, 16:29
Syntec / Upper World
Дисковод: PIONEER DVD-RW DVR-215 Adapter: 2 ID: 1
Режим чтения : Достоверность
Использование точного потока : Да
Отключение кэша аудио : Да
Использование указателей C2 : Нет
Коррекция смещения при чтении : 48
Способность читать области Lead-in и Lead-out : Нет
Заполнение пропущенных сэмплов тишиной : Да
Удаление блоков с тишиной в начале и конце : Нет
При вычислениях CRC использовались нулевые сэмплы : Да
Интерфейс : Встроенный Win32-интерфейс для Win NT/2000
Выходной формат : Пользовательский кодировщик
Выбранный битрейт : 1024 kBit/s
Качество : Высокий
Добавление ID3-тэга : Нет
Утилита сжатия : C:\Program Files\Exact Audio Copy\FLAC\FLAC.EXE
Дополнительные параметры : -8 -V -T "ARTIST=%a" -T "TITLE=%t" -T "ALBUM=%g" -T "DATE=%y" -T "TRACKNUMBER=%n" -T "GENRE=%m" -T "COMMENT=%e" %s -o %d
TOC извлечённого CD
Трек | Старт | Длительность | Начальный сектор | Конечный сектор
---------------------------------------------------------------------
1 | 0:00.00 | 3:59.17 | 0 | 17941
2 | 3:59.17 | 3:53.28 | 17942 | 35444
3 | 7:52.45 | 5:02.67 | 35445 | 58161
4 | 12:55.37 | 3:53.00 | 58162 | 75636
5 | 16:48.37 | 3:18.33 | 75637 | 90519
6 | 20:06.70 | 4:32.12 | 90520 | 110931
7 | 24:39.07 | 4:24.05 | 110932 | 130736
8 | 29:03.12 | 4:59.20 | 130737 | 153181
9 | 34:02.32 | 4:56.50 | 153182 | 175431
10 | 38:59.07 | 4:27.50 | 175432 | 195506
11 | 43:26.57 | 4:05.69 | 195507 | 213950
Характеристики диапазона извлечения и сообщения об ошибках
Выбранный диапазон
Имя файла F:\РАЗДАЧИ!!!! (rutracker.org)\Подготовка к раздаче!!!\SYNTEC - Upper World\Syntec - Upper World.wav
Пиковый уровень 100.0 %
Качество диапазона 99.9 %
CRC теста 81446A51
CRC копии 81446A51
Копирование... OK
Ошибок не произошло
Конец отчёта
AUDIOCHECKER v2.0 beta (build 457) - by Dester - opdester@freemail.hu
~~~~~~~~~~~~~~~~~~~~~~~~~~~~~~~~~~
-=== DO NOT EDIT THIS FILE! ===-
Path: ...\SYNTEC - Upper World
1 -=- Syntec - Upper World.flac -=- CDDA (100%)
94119684
К сожалению ни чего не нашел!!!! Но советую!!! Редкость!!!
Прилагаются все сканы, качестве!
Бонус находится: тут
Можно про них глянуть здесь http://www.lastfm.ru/music/Syntec Но этого мало! Буду рад Если кто поможет!!!
Рип выполнен лично c оригинального CD
Правила, инструкции, FAQ!!!
Торрент  Добавлен [26 июн 2020, 18:52] Скачать торрент Магнет ссылка
Скачать торрент
[ Размер 14.49 КБ / Просмотров 3 ]

Статус
Проверен 
 
Размер  335.78 МБ
Приватный: Нет (DHT включён)
.torrent скачан  0
 


     Отправить личное сообщение
   
Страница 1 из 1
Показать сообщения за:  Поле сортировки  
Начать новую тему Ответить на тему


Сейчас этот форум просматривают: нет зарегистрированных пользователей и гости: 0


Вы не можете начинать темы
Вы не можете отвечать на сообщения
Вы не можете редактировать свои сообщения
Вы не можете удалять свои сообщения
Вы не можете добавлять вложения

Перейти:  
cron