Начать новую тему Ответить на тему
Статистика раздачи
Размер: 92.08 МБ | Добавлен: 26 июн 2020, 17:24 | Скачали: 0
Сидеров: 0  [0 байт/сек]    Личеров: 0  [0 байт/сек]
Пред. тема | След. тема 

Автор
Сообщение

СообщениеДобавлено: 26 июн 2020, 17:24 

Ответить с цитатой 

SYNTEC - Puppets
Жанр: EBM, Synthpop
Год выпуска диска: 1993
Производитель диска: Germany
Аудио кодек: FLAC
Тип рипа: image+.cue
Битрейт аудио: lossless
Продолжительность: 00:13:58
Наличие сканов в содержимом раздачи: да
Трэклист:

Label: Machinery Records
Format: CD, Maxi-Single
Country: Germany
Released: 1993
01. Puppets (Club Mix) (6:10)
02. Puppets (Jung Machines Mix) (4:12)
03. Intend To Change (3:31)
Exact Audio Copy V0.99 prebeta 4 from 23. January 2008
Отчёт EAC об извлечении, выполненном 19. января 2009, 22:12
Synthetic / Puppets
Дисковод: PIONEER DVD-RW DVR-215 Adapter: 2 ID: 1
Режим чтения : Достоверность
Использование точного потока : Да
Отключение кэша аудио : Да
Использование указателей C2 : Нет
Коррекция смещения при чтении : 48
Способность читать области Lead-in и Lead-out : Нет
Заполнение пропущенных сэмплов тишиной : Да
Удаление блоков с тишиной в начале и конце : Нет
При вычислениях CRC использовались нулевые сэмплы : Да
Интерфейс : Встроенный Win32-интерфейс для Win NT/2000
Выходной формат : Пользовательский кодировщик
Выбранный битрейт : 1024 kBit/s
Качество : Высокий
Добавление ID3-тэга : Нет
Утилита сжатия : C:\Program Files\Exact Audio Copy\FLAC\FLAC.EXE
Дополнительные параметры : -8 -V -T "ARTIST=%a" -T "TITLE=%t" -T "ALBUM=%g" -T "DATE=%y" -T "TRACKNUMBER=%n" -T "GENRE=%m" -T "COMMENT=%e" %s -o %d
TOC извлечённого CD
Трек | Старт | Длительность | Начальный сектор | Конечный сектор
---------------------------------------------------------------------
1 | 0:00.00 | 6:11.72 | 0 | 27896
2 | 6:11.72 | 4:14.43 | 27897 | 46989
3 | 10:26.40 | 3:31.37 | 46990 | 62851
Характеристики диапазона извлечения и сообщения об ошибках
Выбранный диапазон
Имя файла F:\РАЗДАЧИ!!!! (rutracker.org)\Подготовка к раздаче!!!\SYNTEC - Puppets (singl)\Synthetic - Puppets.wav
Пиковый уровень 100.0 %
Качество диапазона 99.9 %
CRC теста CB11B758
CRC копии CB11B758
Копирование... OK
Ошибок не произошло
Конец отчёта
AUDIOCHECKER v2.0 beta (build 457) - by Dester - opdester@freemail.hu
~~~~~~~~~~~~~~~~~~~~~~~~~~~~~~~~~~
-=== DO NOT EDIT THIS FILE! ===-
Path: ...\SYNTEC - Puppets (singl)
1 -=- Synthetic - Puppets.flac -=- CDDA (100%)
135584388
К сожалению ни чего не нашел!!!! Это вообще Бомба!!! Редкость!!!
Можно про них глянуть здесь http://www.lastfm.ru/music/Syntec Но этого мало! Буду рад Если кто поможет!!!
Рип выполнен лично c оригинального CD
Правила, инструкции, FAQ!!!
Торрент  Добавлен [26 июн 2020, 17:24] Скачать торрент Магнет ссылка
Скачать торрент
[ Размер 15.32 КБ / Просмотров 5 ]

Статус
Проверен 
 
Размер  92.08 МБ
Приватный: Нет (DHT включён)
.torrent скачан  0
 


     Отправить личное сообщение
   
Страница 1 из 1
Показать сообщения за:  Поле сортировки  
Начать новую тему Ответить на тему


Сейчас этот форум просматривают: нет зарегистрированных пользователей и гости: 0


Вы не можете начинать темы
Вы не можете отвечать на сообщения
Вы не можете редактировать свои сообщения
Вы не можете удалять свои сообщения
Вы не можете добавлять вложения

Перейти:  
cron