Начать новую тему Ответить на тему
Статистика раздачи
Размер: 389.55 МБ | Добавлен: 26 июн 2020, 17:47 | Скачали: 0
Сидеров: 0  [0 байт/сек]    Личеров: 0  [0 байт/сек]
Пред. тема | След. тема 

Автор
Сообщение

СообщениеДобавлено: 26 июн 2020, 17:47 

Ответить с цитатой 

Synapsyche - The Abyss Effect




• Жанр: EBM
• Носитель: WEB
• Год издания: 2016
• Издатель (лейбл) skyQode
• Номер по каталогу: SQD28
• Страна-производитель релиза: Germany | Russia
• Страна исполнителя (группы): Italy
• Аудиокодек: FLAC (*.flac)
• Тип рипа: tracks
• Продолжительность: 00:52:48
• Источник (релизер):NTDMMANIAC ®
• WEB релиз: bandcamp
• Наличие сканов: front

01 - Negativa (00:02:15)
02 - We All Suck (00:04:28)
03 - Venereal (00:04:58)
04 - The Flesh Party (00:05:05)
05 - Backup of an Empty Folder (00:03:49)
06 - Hate and Psyche (00:05:01)
07 - Self-Worship Doctrine (00:04:22)
08 - Angel on Vicodin (00:05:57)
09 - In Apocalypse We Trust (00:04:20)
10 - Trauma in Mi Minore (00:04:48)
11 - Tabula Rasa (00:07:41)

foobar2000 1.2.5 / Замер динамического диапазона (DR) 1.1.1
Дата отчёта: 2018-05-01 22:14:03
--------------------------------------------------------------------------------
Анализ: Synapsyche / The Abyss Effect
--------------------------------------------------------------------------------
DR Пики RMS Продолжительность трека
--------------------------------------------------------------------------------
DR6 -0.25 дБ -9.38 дБ 2:15 01-Negativa
DR5 -0.25 дБ -6.89 дБ 4:29 02-We All Suck
DR5 -0.25 дБ -6.67 дБ 4:59 03-Venereal
DR6 -0.25 дБ -7.99 дБ 5:06 04-The Flesh Party
DR6 -0.25 дБ -7.89 дБ 3:49 05-Backup of an Empty Folder
DR6 -0.25 дБ -6.99 дБ 5:01 06-Hate and Psyche
DR6 -0.25 дБ -8.56 дБ 4:22 07-Self-Worship Doctrine
DR5 -0.25 дБ -6.43 дБ 5:57 08-Angel on Vicodin
DR5 -0.25 дБ -6.53 дБ 4:21 09-In Apocalypse We Trust
DR5 -0.25 дБ -7.11 дБ 4:48 10-Trauma in Mi Minore
DR5 -0.25 дБ -7.55 дБ 7:41 11-Tabula Rasa
--------------------------------------------------------------------------------
Количество треков: 11
Реальные значения DR: DR5
Частота: 44100 Гц
Каналов: 2
Разрядность: 16
Битрейт: 974 кбит/с
Кодек: FLAC
================================================================================

Код:
-----------------------
DON'T MODIFY THIS FILE
-----------------------
PERFORMER: auCDtect Task Manager, ver. 1.5.1RC3 build 1.5.1.4
Copyright (c) 2008-2010 y-soft. All rights reserved
[url=http://y-soft.org]http://y-soft.org[/url]
ANALYZER: auCDtect: CD records authenticity detector, version 0.8.2
Copyright (c) 2004 Oleg Berngardt. All rights reserved.
Copyright (c) 2004 Alexander Djourik. All rights reserved.
FILE: 11 - Tabula Rasa.flac
  Size: 56237897 Hash: 34E96FB51D1753BBF1C862A21465746A Accuracy: -m0
  Conclusion: CDDA 100%
  Signature: 0745A65FECDBD245A284813EDB60BC850D48A3D9
FILE: 10 - Trauma in Mi Minore.flac
  Size: 36738208 Hash: 077F8E75CF955AABBB0384979FEDEE3A Accuracy: -m0
  Conclusion: CDDA 99%
  Signature: CC273D8A02D1F67CB33739BBB0A4AAC9182D95AD
FILE: 09 - In Apocalypse We Trust.flac
  Size: 34680490 Hash: A813B58F8B56041CA046A4C495CC122C Accuracy: -m0
  Conclusion: CDDA 100%
  Signature: B7BF37A824611E54344A29ABDC55AF1D38F9BEAB
FILE: 08 - Angel on Vicodin.flac
  Size: 48005910 Hash: 7480D30DD4801151190E118B9CB66BD2 Accuracy: -m0
  Conclusion: CDDA 100%
  Signature: E0F927CE3BD4085C4C381BF1644DCD3636A1C8AB
FILE: 07 - Self-Worship Doctrine.flac
  Size: 33319578 Hash: 90774DD8D4D1BF0917498DABFE40A979 Accuracy: -m0
  Conclusion: CDDA 100%
  Signature: D1110780A3D76846AF638C89512E71D3C69CF94A
FILE: 06 - Hate and Psyche.flac
  Size: 39379243 Hash: B3AF434B0D8C9F998B91473D76F1E1CE Accuracy: -m0
  Conclusion: CDDA 100%
  Signature: 383BC8B7998220C35122EF5F65BAD855CC1F964D
FILE: 05 - Backup of an Empty Folder.flac
  Size: 29928428 Hash: C456BE9BC679846651652D6AAF6016C1 Accuracy: -m0
  Conclusion: CDDA 100%
  Signature: C78B8E729225943C72102A014163A7BCDAE947DA
FILE: 04 - The Flesh Party.flac
  Size: 39066613 Hash: 53245F52328CFB416FD0EC2A40423C72 Accuracy: -m0
  Conclusion: CDDA 100%
  Signature: 26FF55175E0E8F2D84AE52A8D4682346A07F16B2
FILE: 03 - Venereal.flac
  Size: 39178979 Hash: EE91DE868A75A500AB028E9651729BFC Accuracy: -m0
  Conclusion: CDDA 100%
  Signature: E69764868A452AFA8DE026805FDB758153AEEBDC
FILE: 02 - We All Suck.flac
  Size: 37113739 Hash: 07A50A20ABD965926CD809391D2A9EBA Accuracy: -m0
  Conclusion: CDDA 100%
  Signature: 63898546D8E0385DBD1BE968311D9C996ED14F78
FILE: 01 - Negativa.flac
  Size: 14264759 Hash: 67205A41424A316A0E735E8B4B254E86 Accuracy: -m0
  Conclusion: CDDA 100%
  Signature: 2F9646849E24452D433B91B1789549535E5639E7


Правила, инструкции, FAQ!!!
Торрент  Добавлен [26 июн 2020, 17:47] Скачать торрент Магнет ссылка
Скачать торрент
[ Размер 16.33 КБ / Просмотров 10 ]

Статус
Проверен 
 
Размер  389.55 МБ
Приватный: Нет (DHT включён)
.torrent скачан  0
 


     Отправить личное сообщение
   
Страница 1 из 1
Показать сообщения за:  Поле сортировки  
Начать новую тему Ответить на тему


Сейчас этот форум просматривают: нет зарегистрированных пользователей и гости: 0


Вы не можете начинать темы
Вы не можете отвечать на сообщения
Вы не можете редактировать свои сообщения
Вы не можете удалять свои сообщения
Вы не можете добавлять вложения

Перейти:  
cron