Начать новую тему Ответить на тему
Статистика раздачи
Размер: 378.89 МБ | Добавлен: 26 июн 2020, 20:12 | Скачали: 0
Сидеров: 0  [0 байт/сек]    Личеров: 0  [0 байт/сек]
Пред. тема | След. тема 

Автор
Сообщение

СообщениеДобавлено: 26 июн 2020, 20:12 

Ответить с цитатой 

In Strict Confidence - Collapse
Жанр: EBM
Год выпуска диска: 1997
Производитель диска: US
Аудио кодек: FLAC
Тип рипа: tracks+.cue
Битрейт аудио: lossless
Продолжительность: 54:50
Трэклист:
1 Die Sieben Siegel (Intro) (3:44)
2 Hero (6:06)
3 Collapse (5:05)
4 Inside (4:51)
5 Heaven's Help (Life Part III) (2:38)
6 Prisoner (4:53)
7 Stripped (9:10)
8 Inside (Inside Out Mix) (5:21)
9 Hero (D.J. Edit) (5:11)
10 Sad But True (5:18)
11 Hero (Reprise) (2:28)
Доп. информация:
Label: Metropolis
Catalog#: MET 050
Credits: Artwork By - F.Reiter , R.LindebauM
Artwork By [Us Layout] - Chaos Grafix
Performer - Dennis Ostermann, Jörg Schelte
Recorded By - In Strict Confidence
Written-By, Producer - In Strict Confidence (tracks: 1 to 6, 8, 9, 11)
Notes: Track 7 originally performed by Depeche Mode. Track 10 originally performed by Metallica. Licensed from Zoth Ommog. Recorded at Maschinehraum.
Код:
Exact Audio Copy V0.99 prebeta 4 from 23. January 2008
EAC extraction logfile from 17. November 2008, 21:09
In Strict Confidence / Collapse
Used drive  : _NEC    DVD_RW ND-3550A   Adapter: 0  ID: 0
Read mode               : Secure
Utilize accurate stream : Yes
Defeat audio cache      : Yes
Make use of C2 pointers : No
Read offset correction                      : 48
Overread into Lead-In and Lead-Out          : No
Fill up missing offset samples with silence : Yes
Delete leading and trailing silent blocks   : No
Null samples used in CRC calculations       : Yes
Used interface                              : Installed external ASPI interface
Gap handling                                : Appended to previous track
Used output format              : User Defined Encoder
Selected bitrate                : 1024 kBit/s
Quality                         : High
Add ID3 tag                     : No
Command line compressor         : D:\Programs\Tools\_Exact Audio Copy\FLAC\FLAC.EXE
Additional command line options : -8 -V -T "ARTIST=%a" -T "TITLE=%t" -T "ALBUM=%g" -T "DATE=%y" -T "TRACKNUMBER=%n" -T "GENRE=%m" -T "COMMENT=%e" %s -o %d
TOC of the extracted CD
     Track |   Start  |  Length  | Start sector | End sector
    ---------------------------------------------------------
        1  |  0:00.00 |  3:44.59 |         0    |    16858
        2  |  3:44.59 |  6:06.11 |     16859    |    44319
        3  |  9:50.70 |  5:05.55 |     44320    |    67249
        4  | 14:56.50 |  4:51.46 |     67250    |    89120
        5  | 19:48.21 |  2:38.33 |     89121    |   101003
        6  | 22:26.54 |  4:53.59 |    101004    |   123037
        7  | 27:20.38 |  9:10.54 |    123038    |   164341
        8  | 36:31.17 |  5:21.19 |    164342    |   188435
        9  | 41:52.36 |  5:11.02 |    188436    |   211762
       10  | 47:03.38 |  5:18.54 |    211763    |   235666
       11  | 52:22.17 |  2:28.18 |    235667    |   246784
Track  1
     Filename G:\EAC Temporare\01 Die Sieben Siegel (Intro).wav
     Pre-gap length  0:00:02.00
     Peak level 100.0 %
     Track quality 99.9 %
     Test CRC C836C1C5
     Copy CRC C836C1C5
     Track not present in AccurateRip database
     Copy OK
Track  2
     Filename G:\EAC Temporare\02 Hero.wav
     Pre-gap length  0:00:02.45
     Peak level 100.0 %
     Track quality 100.0 %
     Test CRC 93015F04
     Copy CRC 93015F04
     Track not present in AccurateRip database
     Copy OK
Track  3
     Filename G:\EAC Temporare\03 Collapse.wav
     Pre-gap length  0:00:02.45
     Peak level 100.0 %
     Track quality 100.0 %
     Test CRC FF48BCBC
     Copy CRC FF48BCBC
     Track not present in AccurateRip database
     Copy OK
Track  4
     Filename G:\EAC Temporare\04 Inside.wav
     Pre-gap length  0:00:02.45
     Peak level 99.7 %
     Track quality 100.0 %
     Test CRC 9AB293FA
     Copy CRC 9AB293FA
     Track not present in AccurateRip database
     Copy OK
Track  5
     Filename G:\EAC Temporare\05 Heaven's Help (Life Part III).wav
     Pre-gap length  0:00:02.45
     Peak level 100.0 %
     Track quality 100.0 %
     Test CRC 4DB4696A
     Copy CRC 4DB4696A
     Track not present in AccurateRip database
     Copy OK
Track  6
     Filename G:\EAC Temporare\06 Prisoner.wav
     Pre-gap length  0:00:02.45
     Peak level 100.0 %
     Track quality 100.0 %
     Test CRC E09C377E
     Copy CRC E09C377E
     Track not present in AccurateRip database
     Copy OK
Track  7
     Filename G:\EAC Temporare\07 Stripped.wav
     Pre-gap length  0:00:02.45
     Peak level 99.5 %
     Track quality 100.0 %
     Test CRC 88B8E9AE
     Copy CRC 88B8E9AE
     Track not present in AccurateRip database
     Copy OK
Track  8
     Filename G:\EAC Temporare\08 Inside (Inside Out Remix).wav
     Pre-gap length  0:00:02.45
     Peak level 99.2 %
     Track quality 100.0 %
     Test CRC 881FFE80
     Copy CRC 881FFE80
     Track not present in AccurateRip database
     Copy OK
Track  9
     Filename G:\EAC Temporare\09 Hero (D.J. Edit).wav
     Pre-gap length  0:00:02.45
     Peak level 100.0 %
     Track quality 100.0 %
     Test CRC 7A733C77
     Copy CRC 7A733C77
     Track not present in AccurateRip database
     Copy OK
Track 10
     Filename G:\EAC Temporare\10 Sad But True.wav
     Pre-gap length  0:00:02.45
     Peak level 100.0 %
     Track quality 100.0 %
     Test CRC 36F39D65
     Copy CRC 36F39D65
     Track not present in AccurateRip database
     Copy OK
Track 11
     Filename G:\EAC Temporare\11 Hero (Reprise).wav
     Pre-gap length  0:00:02.45
     Peak level 99.4 %
     Track quality 100.0 %
     Test CRC 00DE090F
     Copy CRC 00DE090F
     Track not present in AccurateRip database
     Copy OK
None of the tracks are present in the AccurateRip database
No errors occurred
End of status report
Зарелизено на rutracker.org

на раздаче ВСЕГДА в нерабочее время (вечер, ночь, выходные), в остальное время как получится
Правила, инструкции, FAQ!!!
Торрент  Добавлен [26 июн 2020, 20:12] Скачать торрент Магнет ссылка
Скачать торрент
[ Размер 16.4 КБ / Просмотров 7 ]

Статус
Проверен 
 
Размер  378.89 МБ
Приватный: Нет (DHT включён)
.torrent скачан  0
 


     Отправить личное сообщение
   
Страница 1 из 1
Показать сообщения за:  Поле сортировки  
Начать новую тему Ответить на тему


Сейчас этот форум просматривают: нет зарегистрированных пользователей и гости: 0


Вы не можете начинать темы
Вы не можете отвечать на сообщения
Вы не можете редактировать свои сообщения
Вы не можете удалять свои сообщения
Вы не можете добавлять вложения

Перейти:  
cron