Начать новую тему Ответить на тему
Статистика раздачи
Размер: 1 ГБ | Добавлен: 26 июн 2020, 19:43 | Скачали: 0
Сидеров: 0  [0 байт/сек]    Личеров: 0  [0 байт/сек]
Пред. тема | След. тема 

Автор
Сообщение

СообщениеДобавлено: 26 июн 2020, 19:43 

Ответить с цитатой 

Stahlnebel & Black Selket / Noise (2CD, Box Set, Limited Edition)
Жанр: EBM
Носитель: CD
Страна-производитель диска (релиза): Hungary
Год издания: 2012
Издатель (лейбл): Advoxya
Номер по каталогу: AD-HUN-69-BOX
Страна исполнителя (группы): Hungary
Аудиокодек: FLAC (*.flac)
Тип рипа: image+.cue
Продолжительность: 1:04:12:64+1:11:32:33
Источник: собственный рип
Наличие сканов в содержимом раздачи: нет
Код:
1 Stop That Noise (Intro) 0:37
2 Life Sentence 6:06
3 Sacrifice 5:33
4 Ignoranz 6:24
5 Shame 5:18
6 Noise 6:58
7 Gier 5:23
8 Bloody Rain (Extended Club Mix) 5:56
9 Are You Ready? 5:17
10 When 4:52
11 Zivil Courage 6:06
12 Drug War (Feat. Jose Brantes Of Say Just Words) 5:21
13 The Noise Strikes Back (Outro) 0:18
Код:
1 Sin 5:11
2 Canibal 5:00
3 Dark Genesis 2007 6:26
4 Move, Led Manville Theme 4:11
5 Bloody Rain (Remixed By Devilsight) 6:35
6 Sacrifice (Remixed By Inline Sex Terror) 4:35
7 Black Threat (Remixed By Nano Infect) 3:45
8 Invisible Radiation (Remixed By Aktivehate) 5:03
9 Bloody Rain (Remixed By Subliminal Code) 5:09
10 God (Where Are You?) (Remixed By Angels Of Suicide) 4:46
11 Missbraucht (Remixed By Adeonesis) 4:43
12 Sacrifice (Remixed By High Level Static) 4:19
13 Bloody Rain (Remixed By Larva) 6:11
14 Sacrifice (Remixed By Reality Remind) 5:14
Код:
Exact Audio Copy V1.0 beta 3 from 29. August 2011
Отчёт EAC об извлечении, выполненном 11. ноября 2019, 19:11
Stahlnebel & Black Selket / Noise
Дисковод: TSSTcorpCDDVDW SH-224DB   Adapter: 1  ID: 0
Режим чтения                 : Достоверность
Использование точного потока : Да
Отключение кэша аудио        : Да
Использование указателей C2  : Нет
Коррекция смещения при чтении                     : 6
Способность читать области Lead-in и Lead-out     : Нет
Заполнение пропущенных сэмплов тишиной            : Да
Удаление блоков с тишиной в начале и конце        : Нет
При вычислениях CRC использовались нулевые сэмплы : Да
Интерфейс                                         : Встроенный Win32-интерфейс для Win NT/2000
Выходной формат          : Пользовательский кодировщик
Выбранный битрейт        : 128 kBit/s
Качество                 : Высокий
Добавление ID3-тега      : Нет
Утилита сжатия           : C:\Program Files (x86)\FLAC\flac.exe
Дополнительные параметры : -V -8 -T "Date=%year%" -T "Genre=%genre%" %source%
TOC извлечённого CD
     Трек |   Старт  | Длительность | Начальный сектор | Конечный сектор
    ---------------------------------------------------------------------
       1  |  0:00.00 |    0:37.64   |           0      |       2838
       2  |  0:37.64 |    6:06.35   |        2839      |      30323
       3  |  6:44.24 |    5:33.00   |       30324      |      55298
       4  | 12:17.24 |    6:24.15   |       55299      |      84113
       5  | 18:41.39 |    5:18.00   |       84114      |     107963
       6  | 23:59.39 |    6:58.20   |      107964      |     139333
       7  | 30:57.59 |    5:23.12   |      139334      |     163570
       8  | 36:20.71 |    5:56.11   |      163571      |     190281
       9  | 42:17.07 |    5:17.10   |      190282      |     214066
      10  | 47:34.17 |    4:52.27   |      214067      |     235993
      11  | 52:26.44 |    6:06.30   |      235994      |     263473
      12  | 58:32.74 |    5:21.00   |      263474      |     287548
      13  | 63:53.74 |    0:18.65   |      287549      |     288963
Характеристики диапазона извлечения и сообщения об ошибках
Выбранный диапазон
     Имя файла C:\EAC\Stahlnebel & Black Selket ‎– Noise - 2012 (2CD, Limited Box Set)\CD1 Stahlnebel & Black Selket ‎– Noise - 2012 (Album)\Stahlnebel & Black Selket - Noise.wav
     Пиковый уровень 89.7 %
     Скорость извлечения 7.3 X
     Качество диапазона 99.9 %
     CRC теста EB392932
     CRC копии EB392932
     Копирование... OK
Ошибок не произошло
AccurateRip: сводка
Трек  1  : извлечено точно (доверие 1)  [FB0ADD43]  (AR v2)
Трек  2  : извлечено точно (доверие 1)  [3E75F0F1]  (AR v2)
Трек  3  : извлечено точно (доверие 1)  [CCA83F20]  (AR v2)
Трек  4  : извлечено точно (доверие 1)  [49AF6E8B]  (AR v2)
Трек  5  : извлечено точно (доверие 1)  [4BC5F537]  (AR v2)
Трек  6  : извлечено точно (доверие 1)  [E87621F1]  (AR v2)
Трек  7  : извлечено точно (доверие 1)  [3208A250]  (AR v2)
Трек  8  : извлечено точно (доверие 1)  [7603B550]  (AR v2)
Трек  9  : извлечено точно (доверие 1)  [367A5537]  (AR v2)
Трек 10  : извлечено точно (доверие 1)  [8D5C9AC5]  (AR v2)
Трек 11  : извлечено точно (доверие 1)  [EA297895]  (AR v2)
Трек 12  : извлечено точно (доверие 1)  [2A7B3B5E]  (AR v2)
Трек 13  : извлечено точно (доверие 1)  [19BD4F94]  (AR v2)
Все треки извлечены точно
Конец отчёта
==== Контрольная сумма отчёта E8F82FAAF5729F84AE5F138AD4AEE7E31E0E33BC0132C1E5BC33F5F29FE51881 ====
Код:
Exact Audio Copy V1.0 beta 3 from 29. August 2011
Отчёт EAC об извлечении, выполненном 11. ноября 2019, 21:52
Stahlnebel & Black Selket / More Noise
Дисковод: TSSTcorpCDDVDW SH-224DB   Adapter: 1  ID: 0
Режим чтения                 : Достоверность
Использование точного потока : Да
Отключение кэша аудио        : Да
Использование указателей C2  : Нет
Коррекция смещения при чтении                     : 6
Способность читать области Lead-in и Lead-out     : Нет
Заполнение пропущенных сэмплов тишиной            : Да
Удаление блоков с тишиной в начале и конце        : Нет
При вычислениях CRC использовались нулевые сэмплы : Да
Интерфейс                                         : Встроенный Win32-интерфейс для Win NT/2000
Выходной формат          : Пользовательский кодировщик
Выбранный битрейт        : 128 kBit/s
Качество                 : Высокий
Добавление ID3-тега      : Нет
Утилита сжатия           : C:\Program Files (x86)\FLAC\flac.exe
Дополнительные параметры : -V -8 -T "Date=%year%" -T "Genre=%genre%" %source%
TOC извлечённого CD
     Трек |   Старт  | Длительность | Начальный сектор | Конечный сектор
    ---------------------------------------------------------------------
       1  |  0:00.00 |    5:12.64   |           0      |      23463
       2  |  5:12.64 |    5:02.59   |       23464      |      46172
       3  | 10:15.48 |    6:27.33   |       46173      |      75230
       4  | 16:43.06 |    4:12.71   |       75231      |      94201
       5  | 20:56.02 |    6:36.51   |       94202      |     123952
       6  | 27:32.53 |    4:36.02   |      123953      |     144654
       7  | 32:08.55 |    3:47.02   |      144655      |     161681
       8  | 35:55.57 |    5:03.63   |      161682      |     184469
       9  | 40:59.45 |    5:10.32   |      184470      |     207751
      10  | 46:10.02 |    4:49.29   |      207752      |     229455
      11  | 50:59.31 |    4:44.02   |      229456      |     250757
      12  | 55:43.33 |    4:20.02   |      250758      |     270259
      13  | 60:03.35 |    6:12.71   |      270260      |     298230
      14  | 66:16.31 |    5:16.02   |      298231      |     321932
Характеристики диапазона извлечения и сообщения об ошибках
Выбранный диапазон
     Имя файла C:\EAC\Stahlnebel & Black Selket ‎– Noise - 2012 (2CD, Limited Box Set)\CD2 Stahlnebel & Black Selket ‎– More Noise - 2012 (Bonus CD)\Stahlnebel & Black Selket - More Noise.wav
     Пиковый уровень 99.9 %
     Скорость извлечения 3.1 X
     Качество диапазона 99.9 %
     CRC теста 94EEBC15
     CRC копии 94EEBC15
     Копирование... OK
Ошибок не произошло
AccurateRip: сводка
Трек  1  : извлечено точно (доверие 1)  [9EAB8C3C]  (AR v2)
Трек  2  : извлечено точно (доверие 1)  [F3167FD2]  (AR v2)
Трек  3  : извлечено точно (доверие 1)  [06225B2F]  (AR v2)
Трек  4  : извлечено точно (доверие 1)  [F8F7DE2F]  (AR v2)
Трек  5  : извлечено точно (доверие 1)  [9119FF83]  (AR v2)
Трек  6  : извлечено точно (доверие 1)  [C8CBDCF5]  (AR v2)
Трек  7  : извлечено точно (доверие 1)  [D063FA46]  (AR v2)
Трек  8  : извлечено точно (доверие 1)  [ED7AEDA2]  (AR v2)
Трек  9  : извлечено точно (доверие 1)  [A76D4002]  (AR v2)
Трек 10  : извлечено точно (доверие 1)  [514BF3A4]  (AR v2)
Трек 11  : извлечено точно (доверие 1)  [3EC2F877]  (AR v2)
Трек 12  : извлечено точно (доверие 1)  [3DD5C7F1]  (AR v2)
Трек 13  : извлечено точно (доверие 1)  [88960181]  (AR v2)
Трек 14  : извлечено точно (доверие 1)  [E69ED577]  (AR v2)
Все треки извлечены точно
Конец отчёта
==== Контрольная сумма отчёта 66DF33D761624FB2B34B09B0D4721253D715BA0061E2A9D79C62A6A72D5D34BB ====
Код:
REM DATE 2012
REM DISCID B80F0C0D
REM COMMENT "ExactAudioCopy v1.0b3"
PERFORMER "Stahlnebel & Black Selket"
TITLE "Noise"
FILE "Stahlnebel & Black Selket - Noise.flac" WAVE
  TRACK 01 AUDIO
    TITLE "Stop That Noise (Intro)"
    PERFORMER "Stahlnebel & Black Selket"
    INDEX 01 00:00:00
  TRACK 02 AUDIO
    TITLE "Life Sentence"
    PERFORMER "Stahlnebel & Black Selket"
    INDEX 01 00:37:64
  TRACK 03 AUDIO
    TITLE "Sacrifice"
    PERFORMER "Stahlnebel & Black Selket"
    INDEX 01 06:44:24
  TRACK 04 AUDIO
    TITLE "Ignoranz"
    PERFORMER "Stahlnebel & Black Selket"
    INDEX 01 12:17:24
  TRACK 05 AUDIO
    TITLE "Shame"
    PERFORMER "Stahlnebel & Black Selket"
    INDEX 01 18:41:39
  TRACK 06 AUDIO
    TITLE "Noise"
    PERFORMER "Stahlnebel & Black Selket"
    INDEX 01 23:59:39
  TRACK 07 AUDIO
    TITLE "Gier"
    PERFORMER "Stahlnebel & Black Selket"
    INDEX 01 30:57:59
  TRACK 08 AUDIO
    TITLE "Bloody Rain (Extended Club Mix)"
    PERFORMER "Stahlnebel & Black Selket"
    INDEX 01 36:20:71
  TRACK 09 AUDIO
    TITLE "Are You Ready?"
    PERFORMER "Stahlnebel & Black Selket"
    INDEX 01 42:17:07
  TRACK 10 AUDIO
    TITLE "When"
    PERFORMER "Stahlnebel & Black Selket"
    INDEX 01 47:34:17
  TRACK 11 AUDIO
    TITLE "Zivil Courage"
    PERFORMER "Stahlnebel & Black Selket"
    INDEX 01 52:26:44
  TRACK 12 AUDIO
    TITLE "Drug War (Feat. Jose Brantes Of Say Just Words)"
    PERFORMER "Stahlnebel & Black Selket"
    INDEX 01 58:32:74
  TRACK 13 AUDIO
    TITLE "The Noise Strikes Back (Outro)"
    PERFORMER "Stahlnebel & Black Selket"
    INDEX 01 63:53:74
Код:
REM DATE 2012
REM DISCID BB10C40E
REM COMMENT "ExactAudioCopy v1.0b3"
PERFORMER "Stahlnebel & Black Selket"
TITLE "More Noise"
FILE "Stahlnebel & Black Selket - More Noise.flac" WAVE
  TRACK 01 AUDIO
    TITLE "Sin"
    PERFORMER "Stahlnebel & Black Selket"
    INDEX 01 00:00:00
  TRACK 02 AUDIO
    TITLE "Canibal"
    PERFORMER "Stahlnebel & Black Selket"
    INDEX 01 05:12:64
  TRACK 03 AUDIO
    TITLE " Dark Genesis 2007"
    PERFORMER "Stahlnebel & Black Selket"
    INDEX 01 10:15:48
  TRACK 04 AUDIO
    TITLE "Move, Led Manville Theme"
    PERFORMER "Stahlnebel & Black Selket"
    INDEX 01 16:43:06
  TRACK 05 AUDIO
    TITLE "Bloody Rain (Remixed By Devilsight)"
    PERFORMER "Stahlnebel & Black Selket"
    INDEX 01 20:56:02
  TRACK 06 AUDIO
    TITLE "Sacrifice (Remixed By Inline Sex Terror)"
    PERFORMER "Stahlnebel & Black Selket"
    INDEX 01 27:32:53
  TRACK 07 AUDIO
    TITLE "Black Threat (Remixed By Nano Infect)"
    PERFORMER "Stahlnebel & Black Selket"
    INDEX 01 32:08:55
  TRACK 08 AUDIO
    TITLE "Invisible Radiation (Remixed By AktiveHate)"
    PERFORMER "Stahlnebel & Black Selket"
    INDEX 01 35:55:57
  TRACK 09 AUDIO
    TITLE "Bloody Rain (Remixed By Subliminal Code)"
    PERFORMER "Stahlnebel & Black Selket"
    INDEX 01 40:59:45
  TRACK 10 AUDIO
    TITLE "God (Where Are You?) (Remixed By Angels Of Suicide)"
    PERFORMER "Stahlnebel & Black Selket"
    INDEX 01 46:10:02
  TRACK 11 AUDIO
    TITLE "Missbraucht (Remixed By Adeonesis)"
    PERFORMER "Stahlnebel & Black Selket"
    INDEX 01 50:59:31
  TRACK 12 AUDIO
    TITLE "Sacrifice (Remixed By High Level Static)"
    PERFORMER "Stahlnebel & Black Selket"
    INDEX 01 55:43:33
  TRACK 13 AUDIO
    TITLE "Bloody Rain (Remixed By Larva)"
    PERFORMER "Stahlnebel & Black Selket"
    INDEX 01 60:03:35
  TRACK 14 AUDIO
    TITLE "Sacrifice (Remixed By Reality Remind)"
    PERFORMER "Stahlnebel & Black Selket"
    INDEX 01 66:16:31
Правила, инструкции, FAQ!!!
Торрент  Добавлен [26 июн 2020, 19:43] Скачать торрент Магнет ссылка
Скачать торрент
[ Размер 11.5 КБ / Просмотров 7 ]

Статус
Проверен 
 
Размер  1 ГБ
Приватный: Нет (DHT включён)
.torrent скачан  0
 


     Отправить личное сообщение
   
Страница 1 из 1
Показать сообщения за:  Поле сортировки  
Начать новую тему Ответить на тему


Сейчас этот форум просматривают: нет зарегистрированных пользователей и гости: 0


Вы не можете начинать темы
Вы не можете отвечать на сообщения
Вы не можете редактировать свои сообщения
Вы не можете удалять свои сообщения
Вы не можете добавлять вложения

Перейти:  
cron