Начать новую тему Ответить на тему
Статистика раздачи
Размер: 351.36 МБ | Добавлен: 26 июн 2020, 17:59 | Скачали: 0
Сидеров: 0  [0 байт/сек]    Личеров: 0  [0 байт/сек]
Пред. тема | След. тема 

Автор
Сообщение

СообщениеДобавлено: 26 июн 2020, 17:59 

Ответить с цитатой 

Signal Aout 42 - Contrast
Жанр: EBM
Год выпуска диска: 1990
Производитель диска: Belgium
Аудио кодек: FLAC
Тип рипа: tracks+.cue
Битрейт аудио: lossless

Трэклист:
1 You Hate Me (1:45)
2 Dead Is Calling (3:47)
3 To Talk Nonsense (4:36)
4 Message (3:15)
Keyboards - Zeck
5 To Paint (4:35)
6 Apocalyptique (5:33)
7 Spirit Of Site (5:56)
8 Shorvetide (4:08)
9 No Girl (3:21)
10 Brutal Lulu (Private Joke) (4:58)
11 Stardust Paradise (4:27)
12 Some Like It Hot (3:19)
13 Staying Alive (Brutal Beginning) (2:45)
14 Programme Not Informatif (4:26)
Exact Audio Copy V0.99 prebeta 4 from 23. January 2008
EAC extraction logfile from 24. February 2009, 13:32
Signal Aout 42 / Contrast
Used drive : SONY DVD RW DRU-710A Adapter: 0 ID: 1
Read mode : Secure
Utilize accurate stream : Yes
Defeat audio cache : Yes
Make use of C2 pointers : No
Read offset correction : 12
Overread into Lead-In and Lead-Out : No
Fill up missing offset samples with silence : Yes
Delete leading and trailing silent blocks : No
Null samples used in CRC calculations : Yes
Used interface : Native Win32 interface for Win NT & 2000
Gap handling : Appended to previous track
Used output format : User Defined Encoder
Selected bitrate : 128 kBit/s
Quality : High
Add ID3 tag : No
Command line compressor : C:\Program Files\FLAC\flac.exe
Additional command line options : -V -8 -T "artist=%a" -T "title=%t" -T "album=%g" -T "date=%y" -T "tracknumber=%n" -T "genre=%m" %s
TOC of the extracted CD
Track | Start | Length | Start sector | End sector
---------------------------------------------------------
1 | 0:00.00 | 4:11.37 | 0 | 18861
2 | 4:11.37 | 3:47.13 | 18862 | 35899
3 | 7:58.50 | 4:36.72 | 35900 | 56671
4 | 12:35.47 | 3:15.35 | 56672 | 71331
5 | 15:51.07 | 4:35.40 | 71332 | 91996
6 | 20:26.47 | 5:33.38 | 91997 | 117009
7 | 26:00.10 | 5:56.72 | 117010 | 143781
8 | 31:57.07 | 4:09.03 | 143782 | 162459
9 | 36:06.10 | 3:21.45 | 162460 | 177579
10 | 39:27.55 | 4:58.57 | 177580 | 199986
11 | 44:26.37 | 4:27.28 | 199987 | 220039
12 | 48:53.65 | 3:19.57 | 220040 | 235021
13 | 52:13.47 | 2:46.05 | 235022 | 247476
14 | 54:59.52 | 4:26.25 | 247477 | 267451
Track 1
Filename E:\Signal Aout 42 - Contrast (FLAC)\01 - You Hate Me.wav
Pre-gap length 0:00:02.00
Peak level 87.3 %
Track quality 100.0 %
Test CRC 8AA3CC0B
Copy CRC 8AA3CC0B
Accurately ripped (confidence 4) [DD304FC7]
Copy OK
Track 2
Filename E:\Signal Aout 42 - Contrast (FLAC)\02 - Dead Is Calling.wav
Pre-gap length 0:00:00.40
Peak level 91.9 %
Track quality 100.0 %
Test CRC AC96B8A7
Copy CRC AC96B8A7
Accurately ripped (confidence 4) [51149FE5]
Copy OK
Track 3
Filename E:\Signal Aout 42 - Contrast (FLAC)\03 - To Talk Nonsense.wav
Pre-gap length 0:00:00.40
Peak level 91.2 %
Track quality 99.9 %
Test CRC 4ED26647
Copy CRC 4ED26647
Accurately ripped (confidence 4) [1F3F3D41]
Copy OK
Track 4
Filename E:\Signal Aout 42 - Contrast (FLAC)\04 - Message.wav
Pre-gap length 0:00:00.82
Peak level 94.1 %
Track quality 100.0 %
Test CRC 5258C448
Copy CRC 5258C448
Accurately ripped (confidence 4) [8CB24FD5]
Copy OK
Track 5
Filename E:\Signal Aout 42 - Contrast (FLAC)\05 - To Paint.wav
Pre-gap length 0:00:02.26
Peak level 94.9 %
Track quality 100.0 %
Test CRC 2101D29D
Copy CRC 2101D29D
Accurately ripped (confidence 4) [D4C14F37]
Copy OK
Track 6
Filename E:\Signal Aout 42 - Contrast (FLAC)\06 - Apocalyptique.wav
Peak level 100.0 %
Track quality 100.0 %
Test CRC 5232859E
Copy CRC 5232859E
Accurately ripped (confidence 4) [0C64223F]
Copy OK
Track 7
Filename E:\Signal Aout 42 - Contrast (FLAC)\07 - Spirit Of Site.wav
Pre-gap length 0:00:00.70
Peak level 84.7 %
Track quality 99.9 %
Test CRC 4AB0A474
Copy CRC 4AB0A474
Accurately ripped (confidence 3) [AA4D26F0]
Copy OK
Track 8
Filename E:\Signal Aout 42 - Contrast (FLAC)\08 - Shorveride.wav
Pre-gap length 0:00:02.16
Peak level 99.9 %
Track quality 99.9 %
Test CRC 4B3672E7
Copy CRC 4B3672E7
Accurately ripped (confidence 4) [64859F65]
Copy OK
Track 9
Filename E:\Signal Aout 42 - Contrast (FLAC)\09 - No Girl.wav
Pre-gap length 0:00:01.13
Peak level 100.0 %
Track quality 100.0 %
Test CRC DCA7DE79
Copy CRC DCA7DE79
Accurately ripped (confidence 4) [5E3E4015]
Copy OK
Track 10
Filename E:\Signal Aout 42 - Contrast (FLAC)\10 - Brutal Lulu (privat joke).wav
Pre-gap length 0:00:00.84
Peak level 87.4 %
Track quality 100.0 %
Test CRC 0743991F
Copy CRC 0743991F
Accurately ripped (confidence 4) [6A9F2A51]
Copy OK
Track 11
Filename E:\Signal Aout 42 - Contrast (FLAC)\11 - Stardust Paradise.wav
Pre-gap length 0:00:01.29
Peak level 93.1 %
Track quality 100.0 %
Test CRC B8B93AA1
Copy CRC B8B93AA1
Accurately ripped (confidence 3) [A875820A]
Copy OK
Track 12
Filename E:\Signal Aout 42 - Contrast (FLAC)\12 - Some Like It Hot.wav
Pre-gap length 0:00:01.13
Peak level 82.7 %
Track quality 100.0 %
Test CRC 65C4B9F7
Copy CRC 65C4B9F7
Accurately ripped (confidence 3) [A24258C9]
Copy OK
Track 13
Filename E:\Signal Aout 42 - Contrast (FLAC)\13 - Staying Alive (brutal beginning).wav
Pre-gap length 0:00:02.02
Peak level 81.2 %
Track quality 100.0 %
Test CRC D8BFBCA2
Copy CRC D8BFBCA2
Accurately ripped (confidence 3) [47AF2593]
Copy OK
Track 14
Filename E:\Signal Aout 42 - Contrast (FLAC)\14 - Programme Not Informatif.wav
Peak level 92.7 %
Track quality 99.9 %
Test CRC A6423B21
Copy CRC A6423B21
Accurately ripped (confidence 3) [5C3C5914]
Copy OK
All tracks accurately ripped
No errors occurred
End of status report
Правила, инструкции, FAQ!!!
Торрент  Добавлен [26 июн 2020, 17:59] Скачать торрент Магнет ссылка
Скачать торрент
[ Размер 15.04 КБ / Просмотров 10 ]

Статус
Проверен 
 
Размер  351.36 МБ
Приватный: Нет (DHT включён)
.torrent скачан  0
 


     Отправить личное сообщение
   
Страница 1 из 1
Показать сообщения за:  Поле сортировки  
Начать новую тему Ответить на тему


Сейчас этот форум просматривают: нет зарегистрированных пользователей и гости: 0


Вы не можете начинать темы
Вы не можете отвечать на сообщения
Вы не можете редактировать свои сообщения
Вы не можете удалять свои сообщения
Вы не можете добавлять вложения

Перейти:  
cron