Начать новую тему Ответить на тему
Статистика раздачи
Размер: 363.61 МБ | Добавлен: 26 июн 2020, 17:18 | Скачали: 0
Сидеров: 0  [0 байт/сек]    Личеров: 0  [0 байт/сек]
Пред. тема | След. тема 

Автор
Сообщение

СообщениеДобавлено: 26 июн 2020, 17:18 

Ответить с цитатой 

Severe Illusion / No More Alive Than You Deserve
Жанр: EBM
Страна-производитель диска: Sweden
Год издания диска: 2011
Издатель (лейбл): Complete Control Productions
Номер по каталогу: CCPCD004
Страна: Sweden
Аудиокодек: APE (*.ape)
Тип рипа: image+.cue
Битрейт аудио: lossless
Продолжительность: 0:57:46
Источник (релизер): rubberbandman
Наличие сканов в содержимом раздачи: да
Треклист:
1. Mockingbird 4:58
2. Try Harder 5:32
3. Clear Head 6:29
4. To The Wall 4:36
5. När Helvetet Kom Till Byn 5:56
6. Inside Your Narrow Little World 5:38
7. Them Unwitting 3:50
8. Rotating Knives, Yes 4:34
9. Cultural Identity 3:37
10. And Them We Kill 6:54
11. Dirt 5:43
Код:
Exact Audio Copy V1.0 beta 3 from 29. August 2011
Отчёт EAC об извлечении, выполненном 17. января 2012, 17:27
Severe Illusion / No More Alive Than You Deserve
Дисковод: ATAPI   DVD A  DH16AASH   Adapter: 1  ID: 0
Режим чтения                 : Достоверность
Использование точного потока : Да
Отключение кэша аудио        : Да
Использование указателей C2  : Нет
Коррекция смещения при чтении                     : 6
Способность читать области Lead-in и Lead-out     : Нет
Заполнение пропущенных сэмплов тишиной            : Да
Удаление блоков с тишиной в начале и конце        : Нет
При вычислениях CRC использовались нулевые сэмплы : Да
Интерфейс                                         : Встроенный Win32-интерфейс для Win NT/2000
Выходной формат          : Пользовательский кодировщик
Выбранный битрейт        : 128 kBit/s
Качество                 : Высокий
Добавление ID3-тега      : Нет
Утилита сжатия           : C:\Program Files (x86)\Monkey's Audio\MAC.exe
Дополнительные параметры : %source% %dest% -c3000
TOC извлечённого CD
     Трек |   Старт  | Длительность | Начальный сектор | Конечный сектор
    ---------------------------------------------------------------------
       1  |  0:00.00 |    4:57.64   |           0      |      22338
       2  |  4:57.64 |    5:32.01   |       22339      |      47239
       3  | 10:29.65 |    6:29.08   |       47240      |      76422
       4  | 16:58.73 |    4:35.61   |       76423      |      97108
       5  | 21:34.59 |    5:55.52   |       97109      |     123785
       6  | 27:30.36 |    5:38.01   |      123786      |     149136
       7  | 33:08.37 |    3:49.65   |      149137      |     166376
       8  | 36:58.27 |    4:34.26   |      166377      |     186952
       9  | 41:32.53 |    3:36.42   |      186953      |     203194
      10  | 45:09.20 |    6:53.58   |      203195      |     234227
      11  | 52:03.03 |    5:43.10   |      234228      |     259962
Характеристики диапазона извлечения и сообщения об ошибках
Выбранный диапазон
     Имя файла M:\Torrent Source Files\Severe Illusion (2011) - No More Alive Than You Deserve\Severe Illusion - No More Alive Than You Deserve.wav
     Пиковый уровень 96.6 %
     Скорость извлечения 8.8 X
     Качество диапазона 100.0 %
     CRC теста 02CE1945
     CRC копии 02CE1945
     Копирование... OK
Ошибок не произошло
Конец отчёта
==== Контрольная сумма отчёта 7F681CE4AF4FE2573F0DB9563253EA200D0C708900625EB325BE4A2556E7CF17 ====
Код:
REM GENRE EBM
REM DATE 2011
REM DISCID 850D8A0B
REM COMMENT "ExactAudioCopy v1.0b3"
CATALOG 7320470151440
PERFORMER "Severe Illusion"
TITLE "No More Alive Than You Deserve"
FILE "Severe Illusion - No More Alive Than You Deserve.ape" WAVE
  TRACK 01 AUDIO
    TITLE "Mockingbird"
    PERFORMER "Severe Illusion"
    ISRC SE2NK1100501
    INDEX 01 00:00:00
  TRACK 02 AUDIO
    TITLE "Try Harder"
    PERFORMER "Severe Illusion"
    ISRC SE2NK1100502
    INDEX 00 04:55:64
    INDEX 01 04:57:64
  TRACK 03 AUDIO
    TITLE "Clear Head"
    PERFORMER "Severe Illusion"
    ISRC SE2NK1100503
    INDEX 00 10:27:65
    INDEX 01 10:29:65
  TRACK 04 AUDIO
    TITLE "To The Wall"
    PERFORMER "Severe Illusion"
    ISRC SE2NK1100504
    INDEX 00 16:56:73
    INDEX 01 16:58:73
  TRACK 05 AUDIO
    TITLE "Nдr Helvetet Kom Till Byn"
    PERFORMER "Severe Illusion"
    ISRC SE2NK1100505
    INDEX 00 21:32:59
    INDEX 01 21:34:59
  TRACK 06 AUDIO
    TITLE "Inside Your Narrow Little World"
    PERFORMER "Severe Illusion"
    ISRC SE2NK1100506
    INDEX 00 27:28:36
    INDEX 01 27:30:36
  TRACK 07 AUDIO
    TITLE "Them Unwitting"
    PERFORMER "Severe Illusion"
    ISRC SE2NK1100507
    INDEX 00 33:06:37
    INDEX 01 33:08:37
  TRACK 08 AUDIO
    TITLE "Rotating Knives, Yes"
    PERFORMER "Severe Illusion"
    ISRC SE2NK1100508
    INDEX 00 36:56:27
    INDEX 01 36:58:27
  TRACK 09 AUDIO
    TITLE "Cultural Identity"
    PERFORMER "Severe Illusion"
    ISRC SE2NK1100509
    INDEX 00 41:30:53
    INDEX 01 41:32:53
  TRACK 10 AUDIO
    TITLE "And Them We Kill"
    PERFORMER "Severe Illusion"
    ISRC SE2NK1100510
    INDEX 00 45:07:20
    INDEX 01 45:09:20
  TRACK 11 AUDIO
    TITLE "Dirt"
    PERFORMER "Severe Illusion"
    ISRC SE2NK1100511
    INDEX 00 52:01:03
    INDEX 01 52:03:03
Код:
AUDIOCHECKER v2.0 beta (build 457) - by Dester - opdester@freemail.hu
~~~~~~~~~~~~~~~~~~~~~~~~~~~~~~~~~~
Started at: Tuesday, 17. 01. 2012. - 19:41.26
1 file found
1 -===- M:\Torrent Source Files\Severe Illusion (2011) - No More Alive Than You Deserve\Severe Illusion - No More Alive Than You Deserve.ape
  Extracted successfully
  Conclusion: this track is CDDA with probability 100%
  Tempfile successfully deleted.
Finished at: Tuesday, 17. 01. 2012. - 19:46.17 (operation time: 0:04.50)
Правила, инструкции, FAQ!!!
Торрент  Добавлен [26 июн 2020, 17:18] Скачать торрент Магнет ссылка
Скачать торрент
[ Размер 15.37 КБ / Просмотров 11 ]

Статус
Проверен 
 
Размер  363.61 МБ
Приватный: Нет (DHT включён)
.torrent скачан  0
 


     Отправить личное сообщение
   
Страница 1 из 1
Показать сообщения за:  Поле сортировки  
Начать новую тему Ответить на тему


Сейчас этот форум просматривают: нет зарегистрированных пользователей и гости: 0


Вы не можете начинать темы
Вы не можете отвечать на сообщения
Вы не можете редактировать свои сообщения
Вы не можете удалять свои сообщения
Вы не можете добавлять вложения

Перейти:  
cron