Начать новую тему Ответить на тему
Статистика раздачи
Размер: 432.06 МБ | Добавлен: 26 июн 2020, 17:35 | Скачали: 0
Сидеров: 0  [0 байт/сек]    Личеров: 0  [0 байт/сек]
Пред. тема | След. тема 

Автор
Сообщение

СообщениеДобавлено: 26 июн 2020, 17:35 

Ответить с цитатой 

Schramm / Schramm

Жанр: EBM
Страна-производитель диска: Germany
Год издания: 2012
Издатель / лейбл: Future Fame Records
Номер по каталогу: FFR 008
Формат издания: CD, Album, Super Jewel Case
База данных Discogs: релиз
Страна: Germany
Аудиокодек: FLAC (*.flac)
Тип рипа: image+.cue (secure, test & copy)
Битрейт аудио: lossless
Продолжительность: 0:50:29.66
Источник: Личная коллекция
Наличие сканов в содержимом раздачи: Да (600 dpi, .jpg)
Треклист:
01. Illuminati 4:02
02. Yokozuna 3:49
03. Nonnenstudio 4:14
04. Tierliebe 4:14
05. Hass mich 4:32
06. Rattentempel 4:30
07. Tango 5:41
08. Asbest 4:42
09. Schramm 4:17
10. Nichts 3:29
11. Musclecar 3:42
12. Wasch dich 3:14
Код:
Exact Audio Copy V1.0 beta 3 from 29. August 2011
Отчёт EAC об извлечении, выполненном 27. июля 2012, 14:21
Schramm / Schramm
Дисковод: PIONEER DVD-RW  DVR-XD10   Adapter: 1  ID: 0
Режим чтения                 : Достоверность
Использование точного потока : Да
Отключение кэша аудио        : Да
Использование указателей C2  : Нет
Коррекция смещения при чтении                     : 96
Способность читать области Lead-in и Lead-out     : Нет
Заполнение пропущенных сэмплов тишиной            : Да
Удаление блоков с тишиной в начале и конце        : Нет
При вычислениях CRC использовались нулевые сэмплы : Да
Интерфейс                                         : Встроенный Win32-интерфейс для Win NT/2000
Выходной формат          : Пользовательский кодировщик
Выбранный битрейт        : 1024 kBit/s
Качество                 : Высокий
Добавление ID3-тега      : Нет
Утилита сжатия           : C:\Program Files\Exact Audio Copy\FLAC\FLAC.EXE
Дополнительные параметры : -V -8 -T "Date=%year%" -T "Genre=%genre%" %source%
TOC извлечённого CD
     Трек |   Старт  | Длительность | Начальный сектор | Конечный сектор
    ---------------------------------------------------------------------
       1  |  0:00.00 |    4:02.57   |           0      |      18206
       2  |  4:02.57 |    3:49.14   |       18207      |      35395
       3  |  7:51.71 |    4:14.00   |       35396      |      54445
       4  | 12:05.71 |    4:14.00   |       54446      |      73495
       5  | 16:19.71 |    4:32.48   |       73496      |      93943
       6  | 20:52.44 |    4:29.68   |       93944      |     114186
       7  | 25:22.37 |    5:41.52   |      114187      |     139813
       8  | 31:04.14 |    4:42.04   |      139814      |     160967
       9  | 35:46.18 |    4:18.00   |      160968      |     180317
      10  | 40:04.18 |    3:29.14   |      180318      |     196006
      11  | 43:33.32 |    3:42.38   |      196007      |     212694
      12  | 47:15.70 |    3:13.71   |      212695      |     227240
Характеристики диапазона извлечения и сообщения об ошибках
Выбранный диапазон
     Имя файла C:\Users\Алексей\Desktop\iPOD\Schramm - Schramm.wav
     Пиковый уровень 100.0 %
     Скорость извлечения 1.7 X
     Качество диапазона 100.0 %
     CRC теста EC7F8B64
     CRC копии EC7F8B64
     Копирование... OK
Ошибок не произошло
AccurateRip: сводка
Трек  1  отсутствует в базе данных
Трек  2  отсутствует в базе данных
Трек  3  отсутствует в базе данных
Трек  4  отсутствует в базе данных
Трек  5  отсутствует в базе данных
Трек  6  отсутствует в базе данных
Трек  7  отсутствует в базе данных
Трек  8  отсутствует в базе данных
Трек  9  отсутствует в базе данных
Трек 10  отсутствует в базе данных
Трек 11  отсутствует в базе данных
Трек 12  отсутствует в базе данных
Ни одного трека нет в базе AccurateRip
Конец отчёта
==== Контрольная сумма отчёта 2C64606308840601D3E74C8621B27CB651949AF94E2C020DEC947EB2ABECAC51 ====
Код:
REM GENRE EBM
REM DATE 2012
REM DISCID A60BD50C
REM COMMENT "ExactAudioCopy v1.0b3"
CATALOG 4260132552488
PERFORMER "Schramm"
TITLE "Schramm"
FILE "Schramm - Schramm.flac" WAVE
  TRACK 01 AUDIO
    TITLE "Illuminati"
    PERFORMER "Schramm"
    ISRC DEHC81200001
    INDEX 01 00:00:00
  TRACK 02 AUDIO
    TITLE "Yokozuna"
    PERFORMER "Schramm"
    ISRC DEHC81200002
    INDEX 01 04:02:57
  TRACK 03 AUDIO
    TITLE "Nonnenstudio"
    PERFORMER "Schramm"
    ISRC DEHC81200003
    INDEX 01 07:51:71
  TRACK 04 AUDIO
    TITLE "Tierliebe"
    PERFORMER "Schramm"
    ISRC DEHC81200004
    INDEX 01 12:05:71
  TRACK 05 AUDIO
    TITLE "Hass Mich"
    PERFORMER "Schramm"
    ISRC DEHC81200005
    INDEX 01 16:19:71
  TRACK 06 AUDIO
    TITLE "Rattentempel"
    PERFORMER "Schramm"
    ISRC DEHC81200006
    INDEX 01 20:52:44
  TRACK 07 AUDIO
    TITLE "Tango"
    PERFORMER "Schramm"
    ISRC DEHC81200007
    INDEX 01 25:22:37
  TRACK 08 AUDIO
    TITLE "Asbest"
    PERFORMER "Schramm"
    ISRC DEHC81200009
    INDEX 01 31:04:14
  TRACK 09 AUDIO
    TITLE "Schramm"
    PERFORMER "Schramm"
    ISRC DEHC81200009
    INDEX 01 35:46:18
  TRACK 10 AUDIO
    TITLE "Nichts"
    PERFORMER "Schramm"
    ISRC DEHC81200010
    INDEX 01 40:04:18
  TRACK 11 AUDIO
    TITLE "Musclecar"
    PERFORMER "Schramm"
    ISRC DEHC81200011
    INDEX 00 43:31:32
    INDEX 01 43:33:32
  TRACK 12 AUDIO
    TITLE "Wasch Dich"
    PERFORMER "Schramm"
    ISRC DEHC81200012
    INDEX 00 47:13:71
    INDEX 01 47:15:70
Правила, инструкции, FAQ!!!
Торрент  Добавлен [26 июн 2020, 17:35] Скачать торрент Магнет ссылка
Скачать торрент
[ Размер 18.31 КБ / Просмотров 11 ]

Статус
Проверен 
 
Размер  432.06 МБ
Приватный: Нет (DHT включён)
.torrent скачан  0
 


     Отправить личное сообщение
   
Страница 1 из 1
Показать сообщения за:  Поле сортировки  
Начать новую тему Ответить на тему


Сейчас этот форум просматривают: нет зарегистрированных пользователей и гости: 0


Вы не можете начинать темы
Вы не можете отвечать на сообщения
Вы не можете редактировать свои сообщения
Вы не можете удалять свои сообщения
Вы не можете добавлять вложения

Перейти:  
cron