Начать новую тему Ответить на тему
Статистика раздачи
Размер: 208.38 МБ | Добавлен: 26 июн 2020, 20:18 | Скачали: 0
Сидеров: 0  [0 байт/сек]    Личеров: 0  [0 байт/сек]
Пред. тема | След. тема 

Автор
Сообщение

СообщениеДобавлено: 26 июн 2020, 20:18 

Ответить с цитатой 

Rotersand ‎ / Exterminate Annihilate Destroy [Maxi-Single]
Жанр: EBM
Страна-производитель диска: Germany
Год издания: 2005
Издатель (лейбл): Dependent Records
Номер по каталогу: mind 087
Страна: Germany
Аудиокодек: FLAC (*.flac)
Тип рипа: image+.cue
Битрейт аудио: lossless
Продолжительность: 00:27:26
Источник (релизер): Личный СД
Наличие сканов в содержимом раздачи: да
Треклист:
1. Exterminate Annihilate Destroy (Reclubbed) 5:22
2. Last Ship (Rearranged) 4:53
3. Exterminate Annihilate Destroy (Album Edit) 5:17
4. Caustic Greed 6:18
5. Exterminate Annihilate Distort (Renoised With Config.Sys) 5:30
Код:
Exact Audio Copy V1.0 beta 3 from 29. August 2011
Отчёт EAC об извлечении, выполненном 12. января 2013, 17:11
Rotersand / Exterminate Annihilate Destroy CDS
Дисковод: PIONEER BD-RW   BDR-207D   Adapter: 2  ID: 1
Режим чтения                 : Достоверность
Использование точного потока : Да
Отключение кэша аудио        : Да
Использование указателей C2  : Нет
Коррекция смещения при чтении                     : 667
Способность читать области Lead-in и Lead-out     : Нет
Заполнение пропущенных сэмплов тишиной            : Да
Удаление блоков с тишиной в начале и конце        : Нет
При вычислениях CRC использовались нулевые сэмплы : Да
Интерфейс                                         : Встроенный Win32-интерфейс для Win NT/2000
Выходной формат          : Пользовательский кодировщик
Выбранный битрейт        : 1024 kBit/s
Качество                 : Высокий
Добавление ID3-тега      : Нет
Утилита сжатия           : C:\Program Files\Exact Audio Copy\Flac\flac.exe
Дополнительные параметры : -V -8 -T "Date=%year%" -T "Genre=%genre%" %source%
TOC извлечённого CD
     Трек |   Старт  | Длительность | Начальный сектор | Конечный сектор
    ---------------------------------------------------------------------
       1  |  0:00.00 |    5:21.10   |           0      |      24084
       2  |  5:21.10 |    4:55.53   |       24085      |      46262
       3  | 10:16.63 |    5:19.16   |       46263      |      70203
       4  | 15:36.04 |    6:20.06   |       70204      |      98709
       5  | 21:56.10 |    5:30.00   |       98710      |     123459
Характеристики диапазона извлечения и сообщения об ошибках
Выбранный диапазон
     Имя файла M:\Раздачи Rodexx\Rotersand ‎– Exterminate Annihilate Destroy\Rotersand - Exterminate Annihilate Destroy CDS.wav
     Пиковый уровень 97.4 %
     Скорость извлечения 6.1 X
     Качество диапазона 100.0 %
     CRC теста FED4B058
     CRC копии FED4B058
     Копирование... OK
Ошибок не произошло
AccurateRip: сводка
Трек  1  : извлечено точно (доверие 3)  [C2ECD9D7]  (AR v2)
Трек  2  : извлечено точно (доверие 3)  [5A068235]  (AR v2)
Трек  3  : извлечено точно (доверие 3)  [9E9B5CE1]  (AR v2)
Трек  4  : извлечено точно (доверие 3)  [621A7CEC]  (AR v2)
Трек  5  : извлечено точно (доверие 3)  [5ECED926]  (AR v2)
Все треки извлечены точно
Конец отчёта
==== Контрольная сумма отчёта 9E0C15E4306496C7AF54017BA554FCE40943F798FFF101C3C7D8C731EAFAC271 ====
Правила, инструкции, FAQ!!!
Торрент  Добавлен [26 июн 2020, 20:18] Скачать торрент Магнет ссылка
Скачать торрент
[ Размер 17.11 КБ / Просмотров 9 ]

Статус
Проверен 
 
Размер  208.38 МБ
Приватный: Нет (DHT включён)
.torrent скачан  0
 


     Отправить личное сообщение
   
Страница 1 из 1
Показать сообщения за:  Поле сортировки  
Начать новую тему Ответить на тему


Сейчас этот форум просматривают: нет зарегистрированных пользователей и гости: 0


Вы не можете начинать темы
Вы не можете отвечать на сообщения
Вы не можете редактировать свои сообщения
Вы не можете удалять свои сообщения
Вы не можете добавлять вложения

Перейти:  
cron