Начать новую тему Ответить на тему
Статистика раздачи
Размер: 443.56 МБ | Добавлен: 26 июн 2020, 18:55 | Скачали: 0
Сидеров: 0  [0 байт/сек]    Личеров: 0  [0 байт/сек]
Пред. тема | След. тема 

Автор
Сообщение

СообщениеДобавлено: 26 июн 2020, 18:55 

Ответить с цитатой 

ReAdjust / Relaunch [EP]
Жанр: EBM
Страна-производитель диска: USA
Год издания диска: 2010
Издатель (лейбл): self released
Аудиокодек: FLAC (*.flac)
Тип рипа: image+.cue
Битрейт аудио: lossless
Продолжительность: 58:44.72
Источник (релизер): Физический носитель
Наличие сканов в содержимом раздачи: да
Треклист:
01. My Advice [5:29]
02. Time To Change [5:43]
03. Only Silence Remains [4:33]
04. Overclocked [4:48]
05. Your Turn [5:51]
06. Alive But Dead [4:14]
07. Only Silence Remains (rmx by Re:\Legion) [4:45]
08. My Advice (rmx by All The Ashes) [4:53]
09. My Advice (rmx by ES23) [5:29]
10. Only Silence Remains (rmx by Ebene Ungenau) [4:49]
11. Only Silence Remains (rmx by Radiation_Unit) [5:00]
12. My Advice (rmx by Prospective) [3:12]
Код:
Exact Audio Copy V0.99 prebeta 5 from 4. May 2009
Отчёт EAC об извлечении, выполненном 8. июля 2011, 19:19
ReAdjust / Relauch [EP]
Дисковод: Optiarc DVD RW AD-7173A   Adapter: 0  ID: 0
Режим чтения                 : Достоверность
Использование точного потока : Да
Отключение кэша аудио        : Да
Использование указателей C2  : Нет
Коррекция смещения при чтении                     : 48
Способность читать области Lead-in и Lead-out     : Нет
Заполнение пропущенных сэмплов тишиной            : Да
Удаление блоков с тишиной в начале и конце        : Нет
При вычислениях CRC использовались нулевые сэмплы : Да
Интерфейс                                         : Установленный внешний ASPI-интерфейс
Выходной формат          : Пользовательский кодировщик
Выбранный битрейт        : 1024 kBit/s
Качество                 : Высокий
Добавление ID3-тэга      : Нет
Утилита сжатия           : C:\Program Files\Exact Audio Copy\flac.exe
Дополнительные параметры : -6 -V -T "ARTIST=%a" -T "TITLE=%t" -T "ALBUM=%g" -T "DATE=%y" -T "TRACKNUMBER=%n" -T "GENRE=%m" -T "COMMENT=%e" %s -o %d
TOC извлечённого CD
     Трек |   Старт  | Длительность | Начальный сектор | Конечный сектор
    ---------------------------------------------------------------------
       1  |  0:00.00 |    5:28.57   |           0      |      24656
       2  |  5:28.57 |    5:43.10   |       24657      |      50391
       3  | 11:11.67 |    4:32.64   |       50392      |      70855
       4  | 15:44.56 |    4:48.00   |       70856      |      92455
       5  | 20:32.56 |    5:51.06   |       92456      |     118786
       6  | 26:23.62 |    4:13.53   |      118787      |     137814
       7  | 30:37.40 |    4:44.50   |      137815      |     159164
       8  | 35:22.15 |    4:53.05   |      159165      |     181144
       9  | 40:15.20 |    5:28.59   |      181145      |     205803
      10  | 45:44.04 |    4:48.72   |      205804      |     227475
      11  | 50:33.01 |    4:59.56   |      227476      |     249956
      12  | 55:32.57 |    3:12.15   |      249957      |     264371
Характеристики диапазона извлечения и сообщения об ошибках
Выбранный диапазон
     Имя файла O:\На трекер\ReAdjust - Relauch [EP].wav
     Пиковый уровень 100.0 %
     Качество диапазона 99.9 %
     CRC теста 48B1E7DF
     CRC копии 48B1E7DF
     Копирование... OK
Ошибок не произошло
AccurateRip: сводка
Трек  1  нет в базе данных
Трек  2  нет в базе данных
Трек  3  нет в базе данных
Трек  4  нет в базе данных
Трек  5  нет в базе данных
Трек  6  нет в базе данных
Трек  7  нет в базе данных
Трек  8  нет в базе данных
Трек  9  нет в базе данных
Трек 10  нет в базе данных
Трек 11  нет в базе данных
Трек 12  нет в базе данных
Ни одного трека нет в базе AccurateRip
Конец отчёта
Правила, инструкции, FAQ!!!
Торрент  Добавлен [26 июн 2020, 18:55] Скачать торрент Магнет ссылка
Скачать торрент
[ Размер 18.15 КБ / Просмотров 9 ]

Статус
Проверен 
 
Размер  443.56 МБ
Приватный: Нет (DHT включён)
.torrent скачан  0
 


     Отправить личное сообщение
   
Страница 1 из 1
Показать сообщения за:  Поле сортировки  
Начать новую тему Ответить на тему


Сейчас этот форум просматривают: нет зарегистрированных пользователей и гости: 0


Вы не можете начинать темы
Вы не можете отвечать на сообщения
Вы не можете редактировать свои сообщения
Вы не можете удалять свои сообщения
Вы не можете добавлять вложения

Перейти:  
cron