Начать новую тему Ответить на тему
Статистика раздачи
Размер: 369.39 МБ | Добавлен: 26 июн 2020, 17:42 | Скачали: 0
Сидеров: 0  [0 байт/сек]    Личеров: 0  [0 байт/сек]
Пред. тема | След. тема 

Автор
Сообщение

СообщениеДобавлено: 26 июн 2020, 17:42 

Ответить с цитатой 

Psy'Aviah Feat. Ayria / Into The Game
Жанр: EBM
Страна-производитель диска: Belgium
Год издания: 2011
Издатель (лейбл): Alfa Matrix
Номер по каталогу: AM-3034-DJ
Страна: Belgium, Canada
Аудиокодек: FLAC (*.flac)
Тип рипа: tracks+.cue
Битрейт аудио: lossless
Продолжительность: 47:12
Источник (релизер): собственный диск
Наличие сканов в содержимом раздачи: нет
Треклист:
01. Into The Game (Original Eclectric Version) [00:03:26]
02. Into The Game (Diskonnekted Remix) [00:03:42]
03. Into The Game (Signal Aout 42 Remix) [00:06:04]
04. Into The Game (Interface Remix) [00:04:30]
05. Into The Game (Misery Remix) [00:04:11]
06. Wired Life (Viral Edit) [00:05:39]
07. Voltage (Krystal System Remix) [00:03:52]
08. Into The Game (Plastic Noise Experience Remix) [00:04:07]
09. Into The Game (Suicidal Romance Remix) [00:04:17]
10. Into The Game (Schwarzblut Remix) [00:03:18]
11. Into The Game (Slave Republic Remix) [00:04:01]
Код:
Exact Audio Copy V1.0 beta 3 from 29. August 2011
Отчёт EAC об извлечении, выполненном 14. декабря 2012, 14:59
Psy'Aviah Feat. Ayria / Into The Game
Дисковод: hp      DVD-RAM UJ8B1   Adapter: 0  ID: 0
Режим чтения                 : Достоверность
Использование точного потока : Да
Отключение кэша аудио        : Да
Использование указателей C2  : Нет
Коррекция смещения при чтении                     : 6
Способность читать области Lead-in и Lead-out     : Нет
Заполнение пропущенных сэмплов тишиной            : Да
Удаление блоков с тишиной в начале и конце        : Нет
При вычислениях CRC использовались нулевые сэмплы : Да
Интерфейс                                         : Встроенный Win32-интерфейс для Win NT/2000
Обработка зазоров                                 : Добавлено к предыдущему треку
Выходной формат          : Пользовательский кодировщик
Выбранный битрейт        : 1024 kBit/s
Качество                 : Высокий
Добавление ID3-тега      : Нет
Утилита сжатия           : C:\Program Files (x86)\Exact Audio Copy 1.0beta3\Flac\flac.exe
Дополнительные параметры : -V -8 -T "Genre=%genre%" -T "Artist=%artist%" -T "Title=%title%" -T "Album=%albumtitle%" -T "Date=%year%" -T "Tracknumber=%tracknr%" -T "Comment=%comment%" %source%
TOC извлечённого CD
     Трек |   Старт  | Длительность | Начальный сектор | Конечный сектор
    ---------------------------------------------------------------------
       1  |  0:00.00 |    3:26.10   |           0      |      15459
       2  |  3:26.10 |    3:42.28   |       15460      |      32137
       3  |  7:08.38 |    6:04.10   |       32138      |      59447
       4  | 13:12.48 |    4:30.07   |       59448      |      79704
       5  | 17:42.55 |    4:11.44   |       79705      |      98573
       6  | 21:54.24 |    5:39.41   |       98574      |     124039
       7  | 27:33.65 |    3:52.57   |      124040      |     141496
       8  | 31:26.47 |    4:07.57   |      141497      |     160078
       9  | 35:34.29 |    4:17.70   |      160079      |     179423
      10  | 39:52.24 |    3:18.08   |      179424      |     194281
      11  | 43:10.32 |    4:01.65   |      194282      |     212421
Трек  1
     Имя файла C:\Users\Dima\Desktop\Новая папка\01 Psy'Aviah Feat. Ayria - Into The Game (Original Eclectric Version).wav
     Длина предзазора  0:00:02.00
     Пиковый уровень 100.0 %
     Скорость извлечения 2.9 X
     Качество трека 100.0 %
     CRC теста 2F963D81
     CRC копии 2F963D81
     Трек не обнаружен в базе AccurateRip
     Копирование... OK
Трек  2
     Имя файла C:\Users\Dima\Desktop\Новая папка\02 Psy'Aviah Feat. Ayria - Into The Game (Diskonnekted Remix).wav
     Пиковый уровень 100.0 %
     Скорость извлечения 3.1 X
     Качество трека 100.0 %
     CRC теста 02F882C5
     CRC копии 02F882C5
     Трек не обнаружен в базе AccurateRip
     Копирование... OK
Трек  3
     Имя файла C:\Users\Dima\Desktop\Новая папка\03 Psy'Aviah Feat. Ayria - Into The Game (Signal Aout 42 Remix).wav
     Пиковый уровень 100.0 %
     Скорость извлечения 3.6 X
     Качество трека 100.0 %
     CRC теста 860493D7
     CRC копии 860493D7
     Трек не обнаружен в базе AccurateRip
     Копирование... OK
Трек  4
     Имя файла C:\Users\Dima\Desktop\Новая папка\04 Psy'Aviah Feat. Ayria - Into The Game (Interface Remix).wav
     Пиковый уровень 100.0 %
     Скорость извлечения 3.8 X
     Качество трека 100.0 %
     CRC теста 19125875
     CRC копии 19125875
     Трек не обнаружен в базе AccurateRip
     Копирование... OK
Трек  5
     Имя файла C:\Users\Dima\Desktop\Новая папка\05 Psy'Aviah Feat. Ayria - Into The Game (Misery Remix).wav
     Пиковый уровень 100.0 %
     Скорость извлечения 4.0 X
     Качество трека 100.0 %
     CRC теста 4A6C285A
     CRC копии 4A6C285A
     Трек не обнаружен в базе AccurateRip
     Копирование... OK
Трек  6
     Имя файла C:\Users\Dima\Desktop\Новая папка\06 Psy'Aviah - Wired Life (Viral Edit).wav
     Пиковый уровень 100.0 %
     Скорость извлечения 4.4 X
     Качество трека 100.0 %
     CRC теста C7DBF54E
     CRC копии C7DBF54E
     Трек не обнаружен в базе AccurateRip
     Копирование... OK
Трек  7
     Имя файла C:\Users\Dima\Desktop\Новая папка\07 Psy'Aviah - Voltage (Krystal System Remix).wav
     Пиковый уровень 100.0 %
     Скорость извлечения 3.9 X
     Качество трека 99.9 %
     CRC теста 2FA969B8
     CRC копии 2FA969B8
     Трек не обнаружен в базе AccurateRip
     Копирование... OK
Трек  8
     Имя файла C:\Users\Dima\Desktop\Новая папка\08 Psy'Aviah Feat. Ayria - Into The Game (Plastic Noise Experience Remix).wav
     Пиковый уровень 100.0 %
     Скорость извлечения 4.6 X
     Качество трека 100.0 %
     CRC теста C9B6B50E
     CRC копии C9B6B50E
     Трек не обнаружен в базе AccurateRip
     Копирование... OK
Трек  9
     Имя файла C:\Users\Dima\Desktop\Новая папка\09 Psy'Aviah Feat. Ayria - Into The Game (Suicidal Romance Remix).wav
     Пиковый уровень 100.0 %
     Скорость извлечения 4.3 X
     Качество трека 99.9 %
     CRC теста 31D334A8
     CRC копии 31D334A8
     Трек не обнаружен в базе AccurateRip
     Копирование... OK
Трек 10
     Имя файла C:\Users\Dima\Desktop\Новая папка\10 Psy'Aviah Feat. Ayria - Into The Game (Schwarzblut Remix).wav
     Пиковый уровень 100.0 %
     Скорость извлечения 4.7 X
     Качество трека 100.0 %
     CRC теста 6700494C
     CRC копии 6700494C
     Трек не обнаружен в базе AccurateRip
     Копирование... OK
Трек 11
     Имя файла C:\Users\Dima\Desktop\Новая папка\11 Psy'Aviah Feat. Ayria - Into The Game (Slave Republic Remix).wav
     Пиковый уровень 100.0 %
     Скорость извлечения 5.0 X
     Качество трека 100.0 %
     CRC теста D92345FD
     CRC копии D92345FD
     Трек не обнаружен в базе AccurateRip
     Копирование... OK
Ни одного трека нет в базе AccurateRip
Ошибок не произошло
Конец отчёта
Код:
REM GENRE EBM
REM DATE 2011
REM DISCID 970B100B
REM COMMENT "ExactAudioCopy v1.0b3"
PERFORMER "Psy'Aviah Feat. Ayria"
TITLE "Into The Game"
FILE "01 Psy'Aviah Feat. Ayria - Into The Game (Original Eclectric Version).wav" WAVE
  TRACK 01 AUDIO
    TITLE "Into The Game (Original Eclectric Version)"
    PERFORMER "Psy'Aviah Feat. Ayria"
    INDEX 01 00:00:00
FILE "02 Psy'Aviah Feat. Ayria - Into The Game (Diskonnekted Remix).wav" WAVE
  TRACK 02 AUDIO
    TITLE "Into The Game (Diskonnekted Remix)"
    PERFORMER "Psy'Aviah Feat. Ayria"
    INDEX 01 00:00:00
FILE "03 Psy'Aviah Feat. Ayria - Into The Game (Signal Aout 42 Remix).wav" WAVE
  TRACK 03 AUDIO
    TITLE "Into The Game (Signal Aout 42 Remix)"
    PERFORMER "Psy'Aviah Feat. Ayria"
    INDEX 01 00:00:00
FILE "04 Psy'Aviah Feat. Ayria - Into The Game (Interface Remix).wav" WAVE
  TRACK 04 AUDIO
    TITLE "Into The Game (Interface Remix)"
    PERFORMER "Psy'Aviah Feat. Ayria"
    INDEX 01 00:00:00
FILE "05 Psy'Aviah Feat. Ayria - Into The Game (Misery Remix).wav" WAVE
  TRACK 05 AUDIO
    TITLE "Into The Game (Misery Remix)"
    PERFORMER "Psy'Aviah Feat. Ayria"
    INDEX 01 00:00:00
FILE "06 Psy'Aviah - Wired Life (Viral Edit).wav" WAVE
  TRACK 06 AUDIO
    TITLE "Wired Life (Viral Edit)"
    PERFORMER "Psy'Aviah"
    INDEX 01 00:00:00
FILE "07 Psy'Aviah - Voltage (Krystal System Remix).wav" WAVE
  TRACK 07 AUDIO
    TITLE "Voltage (Krystal System Remix)"
    PERFORMER "Psy'Aviah"
    INDEX 01 00:00:00
FILE "08 Psy'Aviah Feat. Ayria - Into The Game (Plastic Noise Experience Remix).wav" WAVE
  TRACK 08 AUDIO
    TITLE "Into The Game (Plastic Noise Experience Remix)"
    PERFORMER "Psy'Aviah Feat. Ayria"
    INDEX 01 00:00:00
FILE "09 Psy'Aviah Feat. Ayria - Into The Game (Suicidal Romance Remix).wav" WAVE
  TRACK 09 AUDIO
    TITLE "Into The Game (Suicidal Romance Remix)"
    PERFORMER "Psy'Aviah Feat. Ayria"
    INDEX 01 00:00:00
FILE "10 Psy'Aviah Feat. Ayria - Into The Game (Schwarzblut Remix).wav" WAVE
  TRACK 10 AUDIO
    TITLE "Into The Game (Schwarzblut Remix)"
    PERFORMER "Psy'Aviah Feat. Ayria"
    INDEX 01 00:00:00
FILE "11 Psy'Aviah Feat. Ayria - Into The Game (Slave Republic Remix).wav" WAVE
  TRACK 11 AUDIO
    TITLE "Into The Game (Slave Republic Remix)"
    PERFORMER "Psy'Aviah Feat. Ayria"
    INDEX 01 00:00:00
Правила, инструкции, FAQ!!!
Торрент  Добавлен [26 июн 2020, 17:42] Скачать торрент Магнет ссылка
Скачать торрент
[ Размер 16.09 КБ / Просмотров 10 ]

Статус
Проверен 
 
Размер  369.39 МБ
Приватный: Нет (DHT включён)
.torrent скачан  0
 


     Отправить личное сообщение
   
Страница 1 из 1
Показать сообщения за:  Поле сортировки  
Начать новую тему Ответить на тему


Сейчас этот форум просматривают: нет зарегистрированных пользователей и гости: 0


Вы не можете начинать темы
Вы не можете отвечать на сообщения
Вы не можете редактировать свои сообщения
Вы не можете удалять свои сообщения
Вы не можете добавлять вложения

Перейти:  
cron