Начать новую тему Ответить на тему
Статистика раздачи
Размер: 596.64 МБ | Добавлен: 26 июн 2020, 17:05 | Скачали: 0
Сидеров: 0  [0 байт/сек]    Личеров: 0  [0 байт/сек]
Пред. тема | След. тема 

Автор
Сообщение

СообщениеДобавлено: 26 июн 2020, 17:05 

Ответить с цитатой 

Prager Handgriff - Maschinensturm

Жанр: EBM
Год выпуска диска: 1995
Производитель диска: Germany
Аудио кодек: FLAC
Тип рипа: image+.cue
Битрейт аудио: lossless
Продолжительность: 00:49:30
Источник (релизер): Собственный рип
Наличие сканов в содержимом раздачи: да, TIF 600dpi
01. Der Sender (4:51)
02. Maschinensturm (3:01)
03. Zuviele Worte (5:08)
04. Das Leben Tobt (3:58)
05. Elektrostahl (4:29)
06. Unter Der Stadt (5:35)
07. Am Nachmittag (3:53)
08. Strahlentod (3:59)
09. Bihac (3:13)
10. Morgengrauen (5:42)
11. Deutschland? (5:36)
Exact Audio Copy V0.99 prebeta 4 from 23. January 2008
Отчёт EAC об извлечении, выполненном 1. августа 2010, 0:44
Prager Handgriff / Maschinensturm
Дисковод: PIONEER DVD-RW DVR-215 Adapter: 4 ID: 0
Режим чтения : Достоверность
Использование точного потока : Да
Отключение кэша аудио : Да
Использование указателей C2 : Нет
Коррекция смещения при чтении : 48
Способность читать области Lead-in и Lead-out : Нет
Заполнение пропущенных сэмплов тишиной : Да
Удаление блоков с тишиной в начале и конце : Нет
При вычислениях CRC использовались нулевые сэмплы : Да
Интерфейс : Встроенный Win32-интерфейс для Win NT/2000
Выходной формат : Пользовательский кодировщик
Выбранный битрейт : 1024 kBit/s
Качество : Высокий
Добавление ID3-тэга : Нет
Утилита сжатия : C:\Program Files (x86)\Exact Audio Copy\FLAC\FLAC.EXE
Дополнительные параметры : -8 -V -T "ARTIST=%a" -T "TITLE=%t" -T "ALBUM=%g" -T "DATE=%y" -T "TRACKNUMBER=%n" -T "GENRE=%m" -T "COMMENT=%e" %s -o %d
TOC извлечённого CD
Трек | Старт | Длительность | Начальный сектор | Конечный сектор
---------------------------------------------------------------------
1 | 0:00.00 | 4:51.30 | 0 | 21854
2 | 4:51.30 | 3:01.65 | 21855 | 35494
3 | 7:53.20 | 5:08.50 | 35495 | 58644
4 | 13:01.70 | 3:58.10 | 58645 | 76504
5 | 17:00.05 | 4:29.00 | 76505 | 96679
6 | 21:29.05 | 5:35.02 | 96680 | 121806
7 | 27:04.07 | 3:53.60 | 121807 | 139341
8 | 30:57.67 | 3:59.40 | 139342 | 157306
9 | 34:57.32 | 3:13.48 | 157307 | 171829
10 | 38:11.05 | 5:42.67 | 171830 | 197546
11 | 43:53.72 | 5:36.08 | 197547 | 222754
Характеристики диапазона извлечения и сообщения об ошибках
Выбранный диапазон
Имя файла G:\РАЗДАЧИ!!!!\Prager Handgriff - Maschinensturm - 1995\New\Prager Handgriff - Maschinensturm.wav
Пиковый уровень 100.0 %
Качество диапазона 100.0 %
CRC теста 4809BED7
CRC копии 4809BED7
Копирование... OK
Ошибок не произошло
AccurateRip: сводка
Трек 1 точное извлечение (доверие 3) [9AB7BACE]
Трек 2 точное извлечение (доверие 3) [73695F61]
Трек 3 точное извлечение (доверие 3) [3EB9A384]
Трек 4 точное извлечение (доверие 3) [E8A74B5B]
Трек 5 точное извлечение (доверие 3) [FB0C5BD5]
Трек 6 точное извлечение (доверие 3) [536CDC03]
Трек 7 точное извлечение (доверие 3) [8B9E4180]
Трек 8 точное извлечение (доверие 3) [8A97B352]
Трек 9 точное извлечение (доверие 3) [FAD87D69]
Трек 10 точное извлечение (доверие 3) [AF8CBB0E]
Трек 11 точное извлечение (доверие 3) [B9EB640D]
Все треки извлечены точно
Конец отчёта
Код:
REM DISCID 9E0B9A0B
REM COMMENT "ExactAudioCopy v0.99pb4"
PERFORMER "Prager Handgriff"
TITLE "Maschinensturm"
FILE "Prager Handgriff - Maschinensturm.flac" WAVE
  TRACK 01 AUDIO
    TITLE "Der Sender"
    PERFORMER "Prager Handgriff"
    INDEX 01 00:00:00
  TRACK 02 AUDIO
    TITLE "Maschinensturm"
    PERFORMER "Prager Handgriff"
    INDEX 01 04:51:30
  TRACK 03 AUDIO
    TITLE "Zuviele Worte"
    PERFORMER "Prager Handgriff"
    INDEX 01 07:53:20
  TRACK 04 AUDIO
    TITLE "Das Leben tobt"
    PERFORMER "Prager Handgriff"
    INDEX 01 13:01:70
  TRACK 05 AUDIO
    TITLE "Elektrostahl"
    PERFORMER "Prager Handgriff"
    INDEX 01 17:00:05
  TRACK 06 AUDIO
    TITLE "Unter der Stadt"
    PERFORMER "Prager Handgriff"
    INDEX 01 21:29:05
  TRACK 07 AUDIO
    TITLE "Am Nachmittag"
    PERFORMER "Prager Handgriff"
    INDEX 01 27:04:07
  TRACK 08 AUDIO
    TITLE "Strahlentod"
    PERFORMER "Prager Handgriff"
    INDEX 01 30:57:67
  TRACK 09 AUDIO
    TITLE "Bihac"
    PERFORMER "Prager Handgriff"
    INDEX 01 34:57:32
  TRACK 10 AUDIO
    TITLE "Morgengrauen"
    PERFORMER "Prager Handgriff"
    INDEX 01 38:11:05
  TRACK 11 AUDIO
    TITLE "Deutschland?"
    PERFORMER "Prager Handgriff"
    INDEX 01 43:53:72
   
AUDIOCHECKER v2.0 beta (build 457) - by Dester - opdester@freemail.hu
~~~~~~~~~~~~~~~~~~~~~~~~~~~~~~~~~~
-=== DO NOT EDIT THIS FILE! ===-
Path: ...\New
1 -=- Prager Handgriff - Maschinensturm.flac -=- CDDA (100%)
256694436
Правила, инструкции, FAQ!!!
Торрент  Добавлен [26 июн 2020, 17:05] Скачать торрент Магнет ссылка
Скачать торрент
[ Размер 12.91 КБ / Просмотров 4 ]

Статус
Проверен 
 
Размер  596.64 МБ
Приватный: Нет (DHT включён)
.torrent скачан  0
 


     Отправить личное сообщение
   
Страница 1 из 1
Показать сообщения за:  Поле сортировки  
Начать новую тему Ответить на тему


Сейчас этот форум просматривают: нет зарегистрированных пользователей и гости: 0


Вы не можете начинать темы
Вы не можете отвечать на сообщения
Вы не можете редактировать свои сообщения
Вы не можете удалять свои сообщения
Вы не можете добавлять вложения

Перейти:  
cron