Начать новую тему Ответить на тему
Статистика раздачи
Размер: 399.53 МБ | Добавлен: 26 июн 2020, 16:59 | Скачали: 0
Сидеров: 0  [0 байт/сек]    Личеров: 0  [0 байт/сек]
Пред. тема | След. тема 

Автор
Сообщение

СообщениеДобавлено: 26 июн 2020, 16:59 

Ответить с цитатой 

Prager Handgriff - [1000] Feuer
Жанр: EBM
Год выпуска диска: 2002
Производитель диска: Германия
Аудио кодек: APE
Тип рипа: image+.cue
Битрейт аудио: lossless
Продолжительность: 00:54:06
Трэклист:
01.1000 Feuer
02.Ausnahmezustand
03.Zukunftsmusik
04.Kick & Rush
05.Grenzenlose Gerechtigkeit
06.Kuramathi
07.Zenith
08.Mein Herz
09.Achterbahn
10.Schau Nach!
Код:
Exact Audio Copy V0.99 prebeta 5 from 4. May 2009
Отчёт EAC об извлечении, выполненном 26. июля 2009, 20:02
Prager Handgriff / 1000 [Feuer]
Дисковод: Optiarc DVD RW AD-7201S   Adapter: 1  ID: 1
Режим чтения                 : Достоверность
Использование точного потока : Да
Отключение кэша аудио        : Да
Использование указателей C2  : Нет
Коррекция смещения при чтении                     : 48
Способность читать области Lead-in и Lead-out     : Нет
Заполнение пропущенных сэмплов тишиной            : Да
Удаление блоков с тишиной в начале и конце        : Нет
При вычислениях CRC использовались нулевые сэмплы : Да
Интерфейс                                         : Установленный внешний
ASPI-интерфейс
Выходной формат : Внутренние WAV-операции
Формат сэмплов  : 44.100 Гц; 16 бит; стерео
TOC извлечённого CD
     Трек |   Старт  | Длительность | Начальный сектор | Конечный сектор
    ---------------------------------------------------------------------
       1  |  0:00.00 |    4:35.40   |           0      |      20664
       2  |  4:35.40 |    4:20.02   |       20665      |      40166
       3  |  8:55.42 |    4:39.00   |       40167      |      61091
       4  | 13:34.42 |    5:49.02   |       61092      |      87268
       5  | 19:23.44 |    5:36.71   |       87269      |     112539
       6  | 25:00.40 |    7:09.08   |      112540      |     144722
       7  | 32:09.48 |    6:26.02   |      144723      |     173674
       8  | 38:35.50 |    5:23.20   |      173675      |     197919
       9  | 43:58.70 |    6:40.09   |      197920      |     227928
      10  | 50:39.04 |    3:27.01   |      227929      |     243454
Характеристики диапазона извлечения и сообщения об ошибках
Выбранный диапазон
     Имя файла D:\Documents and Settings\Rodexx\Рабочий стол\Prager Handgriff
- [1000] Feuer\Prager Handgriff - 1000 [Feuer].wav
     Пиковый уровень 96.6 %
     Качество диапазона 100.0 %
     CRC теста CA70DE9F
     CRC копии CA70DE9F
     Копирование... OK
Ошибок не произошло
Конец отчёта
Label: Electric Blue
Catalog#: EFA 12593-2
Format: CD, Album
Country: Germany
Released: 01 Sep 2002
Genre: Electronic
Style: EBM
Правила, инструкции, FAQ!!!
Торрент  Добавлен [26 июн 2020, 16:59] Скачать торрент Магнет ссылка
Скачать торрент
[ Размер 16.32 КБ / Просмотров 5 ]

Статус
Проверен 
 
Размер  399.53 МБ
Приватный: Нет (DHT включён)
.torrent скачан  0
 


     Отправить личное сообщение
   
Страница 1 из 1
Показать сообщения за:  Поле сортировки  
Начать новую тему Ответить на тему


Сейчас этот форум просматривают: нет зарегистрированных пользователей и гости: 0


Вы не можете начинать темы
Вы не можете отвечать на сообщения
Вы не можете редактировать свои сообщения
Вы не можете удалять свои сообщения
Вы не можете добавлять вложения

Перейти:  
cron