Начать новую тему Ответить на тему
Статистика раздачи
Размер: 525.82 МБ | Добавлен: 26 июн 2020, 20:25 | Скачали: 0
Сидеров: 0  [0 байт/сек]    Личеров: 0  [0 байт/сек]
Пред. тема | След. тема 

Автор
Сообщение

СообщениеДобавлено: 26 июн 2020, 20:25 

Ответить с цитатой 

Prager Handgriff / Arglistige Tauschung
Жанр: EBM
Страна-производитель диска: Germany
Год издания диска: 2011
Издатель (лейбл): Infacted Recordings
Номер по каталогу: FACT 3182
Страна: Germany
Аудиокодек: FLAC (*.flac)
Тип рипа: image+.cue
Битрейт аудио: lossless
Продолжительность: 1:13:22.00
Источник (релизер): CD из личной коллекции.
Наличие сканов в содержимом раздачи: да
Треклист:
01. Tibet 3:54
02. Deutschland? 3:30
03. Klaustrophobie 3:26
04. Flucht 3:59
05. Herbst 5:50
06. Das Du 3:52
07. Zivilisation 3:27
08. Monsun 3:38
09. Bilder Meiner Angst 4:31
10. Grosestadtliebe 4:59
11. Baskerville 6:08
12. Wahnsinn 2:47
13. Schwermetall 3:59
14. Tollwut 3:28
15. Prag 2:58
16. Herzschlag 3:07
17. Morgengrauen 5:38
18. Zaesur 4:09
Discogs
Код:
Exact Audio Copy V0.99 prebeta 5 from 4. May 2009
Отчёт EAC об извлечении, выполненном 6. октября 2011, 19:11
Der Prager Handgriff / Arglistige Taeuschung
Дисковод: TSSTcorpCDDVDW TS-L632H   Adapter: 0  ID: 0
Режим чтения                 : Достоверность
Использование точного потока : Да
Отключение кэша аудио        : Да
Использование указателей C2  : Нет
Коррекция смещения при чтении                     : 6
Способность читать области Lead-in и Lead-out     : Нет
Заполнение пропущенных сэмплов тишиной            : Да
Удаление блоков с тишиной в начале и конце        : Нет
При вычислениях CRC использовались нулевые сэмплы : Да
Интерфейс                                         : Встроенный Win32-интерфейс для Win NT/2000
Выходной формат          : Пользовательский кодировщик
Выбранный битрейт        : 1024 kBit/s
Качество                 : Высокий
Добавление ID3-тэга      : Нет
Утилита сжатия           : C:\Program Files\Exact Audio Copy\FLAC\FLAC.EXE
Дополнительные параметры : -6 -V -T "ARTIST=%a" -T "TITLE=%t" -T "ALBUM=%g" -T "DATE=%y" -T "TRACKNUMBER=%n" -T "GENRE=%m" -T "COMMENT=%e" %s -o %d
TOC извлечённого CD
     Трек |   Старт  | Длительность | Начальный сектор | Конечный сектор
    ---------------------------------------------------------------------
       1  |  0:00.00 |    3:54.31   |           0      |      17580
       2  |  3:54.31 |    3:30.19   |       17581      |      33349
       3  |  7:24.50 |    3:26.07   |       33350      |      48806
       4  | 10:50.57 |    3:58.45   |       48807      |      66701
       5  | 14:49.27 |    5:50.21   |       66702      |      92972
       6  | 20:39.48 |    3:52.37   |       92973      |     110409
       7  | 24:32.10 |    3:27.34   |      110410      |     125968
       8  | 27:59.44 |    3:38.33   |      125969      |     142351
       9  | 31:38.02 |    4:30.71   |      142352      |     162672
      10  | 36:08.73 |    4:59.36   |      162673      |     185133
      11  | 41:08.34 |    6:08.08   |      185134      |     212741
      12  | 47:16.42 |    2:46.40   |      212742      |     225231
      13  | 50:03.07 |    3:58.58   |      225232      |     243139
      14  | 54:01.65 |    3:28.18   |      243140      |     258757
      15  | 57:30.08 |    2:57.73   |      258758      |     272105
      16  | 60:28.06 |    3:06.44   |      272106      |     286099
      17  | 63:34.50 |    5:38.09   |      286100      |     311458
      18  | 69:12.59 |    4:09.16   |      311459      |     330149
Характеристики диапазона извлечения и сообщения об ошибках
Выбранный диапазон
     Имя файла C:\Users\Алексей\Desktop\iPOD\Der Prager Handgriff - Arglistige Taeuschung.wav
     Пиковый уровень 100.0 %
     Качество диапазона 100.0 %
     CRC теста E4CAB1E4
     CRC копии E4CAB1E4
     Копирование... OK
Ошибок не произошло
AccurateRip: сводка
Трек  1  нет в базе данных
Трек  2  нет в базе данных
Трек  3  нет в базе данных
Трек  4  нет в базе данных
Трек  5  нет в базе данных
Трек  6  нет в базе данных
Трек  7  нет в базе данных
Трек  8  нет в базе данных
Трек  9  нет в базе данных
Трек 10  нет в базе данных
Трек 11  нет в базе данных
Трек 12  нет в базе данных
Трек 13  нет в базе данных
Трек 14  нет в базе данных
Трек 15  нет в базе данных
Трек 16  нет в базе данных
Трек 17  нет в базе данных
Трек 18  нет в базе данных
Ни одного трека нет в базе AccurateRip
Конец отчёта
Код:
REM GENRE EBM
REM DATE 2011
REM DISCID E6113212
REM COMMENT "ExactAudioCopy v0.99pb5"
PERFORMER "Der Prager Handgriff"
TITLE "Arglistige Taeuschung"
FILE "Der Prager Handgriff - Arglistige Taeuschung.flac" WAVE
  TRACK 01 AUDIO
    TITLE "Tibet"
    PERFORMER "Der Prager Handgriff"
    FLAGS DCP
    INDEX 01 00:00:00
  TRACK 02 AUDIO
    TITLE "Deutschland?"
    PERFORMER "Der Prager Handgriff"
    FLAGS DCP
    INDEX 00 03:53:31
    INDEX 01 03:54:31
  TRACK 03 AUDIO
    TITLE "Klaustrophobie"
    PERFORMER "Der Prager Handgriff"
    FLAGS DCP
    INDEX 00 07:23:50
    INDEX 01 07:24:50
  TRACK 04 AUDIO
    TITLE "Flucht"
    PERFORMER "Der Prager Handgriff"
    FLAGS DCP
    INDEX 00 10:49:57
    INDEX 01 10:50:57
  TRACK 05 AUDIO
    TITLE "Herbst"
    PERFORMER "Der Prager Handgriff"
    FLAGS DCP
    INDEX 00 14:48:27
    INDEX 01 14:49:27
  TRACK 06 AUDIO
    TITLE "Das Du"
    PERFORMER "Der Prager Handgriff"
    FLAGS DCP
    INDEX 00 20:38:48
    INDEX 01 20:39:48
  TRACK 07 AUDIO
    TITLE "Zivilisation"
    PERFORMER "Der Prager Handgriff"
    FLAGS DCP
    INDEX 00 24:31:10
    INDEX 01 24:32:10
  TRACK 08 AUDIO
    TITLE "Monsun"
    PERFORMER "Der Prager Handgriff"
    FLAGS DCP
    INDEX 00 27:58:44
    INDEX 01 27:59:44
  TRACK 09 AUDIO
    TITLE "Bilder Meiner Angst"
    PERFORMER "Der Prager Handgriff"
    FLAGS DCP
    INDEX 00 31:37:02
    INDEX 01 31:38:02
  TRACK 10 AUDIO
    TITLE "Grossstadtliebe"
    PERFORMER "Der Prager Handgriff"
    FLAGS DCP
    INDEX 00 36:07:73
    INDEX 01 36:08:73
  TRACK 11 AUDIO
    TITLE "Baskerville"
    PERFORMER "Der Prager Handgriff"
    FLAGS DCP
    INDEX 00 41:07:34
    INDEX 01 41:08:34
  TRACK 12 AUDIO
    TITLE "Wahnsinn"
    PERFORMER "Der Prager Handgriff"
    FLAGS DCP
    INDEX 00 47:15:42
    INDEX 01 47:16:42
  TRACK 13 AUDIO
    TITLE "Schwermetall"
    PERFORMER "Der Prager Handgriff"
    FLAGS DCP
    INDEX 00 50:02:07
    INDEX 01 50:03:07
  TRACK 14 AUDIO
    TITLE "Tollwut"
    PERFORMER "Der Prager Handgriff"
    FLAGS DCP
    INDEX 00 54:00:65
    INDEX 01 54:01:65
  TRACK 15 AUDIO
    TITLE "Prag"
    PERFORMER "Der Prager Handgriff"
    FLAGS DCP
    INDEX 00 57:29:08
    INDEX 01 57:30:08
  TRACK 16 AUDIO
    TITLE "Herzschlag"
    PERFORMER "Der Prager Handgriff"
    FLAGS DCP
    INDEX 00 60:27:06
    INDEX 01 60:28:06
  TRACK 17 AUDIO
    TITLE "Morgengrauen"
    PERFORMER "Der Prager Handgriff"
    FLAGS DCP
    INDEX 00 63:33:50
    INDEX 01 63:34:50
  TRACK 18 AUDIO
    TITLE "Zaesur"
    PERFORMER "Der Prager Handgriff"
    FLAGS DCP
    INDEX 00 69:11:59
    INDEX 01 69:12:59
Код:
[url=https://fastpic.ru/view/32/2011/1027/051664f8cb8f4ee2653e65bac46d6c13.jpg.html][img]http://i32.fastpic.ru/thumb/2011/1027/13/051664f8cb8f4ee2653e65bac46d6c13.jpeg[/img][/url][url=https://fastpic.ru/view/28/2011/1027/caf4cfea2c5941af056e478b798afc54.jpg.html][img]http://i28.fastpic.ru/thumb/2011/1027/54/caf4cfea2c5941af056e478b798afc54.jpeg[/img][/url][url=https://fastpic.ru/view/29/2011/1027/5884637db0a78a11ef803a15244e975f.jpg.html][img]http://i29.fastpic.ru/thumb/2011/1027/5f/5884637db0a78a11ef803a15244e975f.jpeg[/img][/url][url=https://fastpic.ru/view/27/2011/1027/0094ecada4dc2e0d2e4740f2768b3ea4.jpg.html][img]http://i27.fastpic.ru/thumb/2011/1027/a4/0094ecada4dc2e0d2e4740f2768b3ea4.jpeg[/img][/url]
Выражаю благодарность kergarn`у за HQ scans!
Правила, инструкции, FAQ!!!
Торрент  Добавлен [26 июн 2020, 20:25] Скачать торрент Магнет ссылка
Скачать торрент
[ Размер 11.5 КБ / Просмотров 4 ]

Статус
Проверен 
 
Размер  525.82 МБ
Приватный: Нет (DHT включён)
.torrent скачан  0
 


     Отправить личное сообщение
   
Страница 1 из 1
Показать сообщения за:  Поле сортировки  
Начать новую тему Ответить на тему


Сейчас этот форум просматривают: нет зарегистрированных пользователей и гости: 0


Вы не можете начинать темы
Вы не можете отвечать на сообщения
Вы не можете редактировать свои сообщения
Вы не можете удалять свои сообщения
Вы не можете добавлять вложения

Перейти:  
cron