Начать новую тему Ответить на тему
Статистика раздачи
Размер: 538.46 МБ | Добавлен: 26 июн 2020, 17:36 | Скачали: 0
Сидеров: 0  [0 байт/сек]    Личеров: 0  [0 байт/сек]
Пред. тема | След. тема 

Автор
Сообщение

СообщениеДобавлено: 26 июн 2020, 17:36 

Ответить с цитатой 

Prager Handgriff / Arbeit Sport Und Spiel
Жанр: EBM
Страна-производитель диска: Germany
Год издания диска: 2011
Издатель (лейбл): Electric Tremor Dessau
Номер по каталогу: ETD 039 CD
Страна: Germany
Аудиокодек: FLAC (*.flac)
Тип рипа: image+.cue
Битрейт аудио: lossless
Продолжительность: 1:10:00.11
Источник (релизер): CD из личной коллекции.
Наличие сканов в содержимом раздачи: да
Треклист:
01. Elektrorepublik 6:02
02. Bis An Das Ende Der Welt 6:03
03. Vorwarts 5:13
04. Ich Denke Dein 5:47
05. Der Aufschwung 5:13
06. Die Dunkle Ewigkeit 5:56
07. Im Westen Nichts Neues 5:19
08. Ich Finde Dich 5:32
09. Arbeit Sport Und Spiel 6:15
10. Sieben Rosen 6:43
11. Defekt 5:53
12. Wanderratten 5:26
Discogs
Код:
Exact Audio Copy V0.99 prebeta 5 from 4. May 2009
Отчёт EAC об извлечении, выполненном 19. мая 2011, 16:44
Prager Handgriff / Arbeit, Sport Und Spiel
Дисковод: TSSTcorpCDDVDW TS-L632H   Adapter: 0  ID: 0
Режим чтения                 : Достоверность
Использование точного потока : Да
Отключение кэша аудио        : Да
Использование указателей C2  : Нет
Коррекция смещения при чтении                     : 6
Способность читать области Lead-in и Lead-out     : Нет
Заполнение пропущенных сэмплов тишиной            : Да
Удаление блоков с тишиной в начале и конце        : Нет
При вычислениях CRC использовались нулевые сэмплы : Да
Интерфейс                                         : Встроенный Win32-интерфейс для Win NT/2000
Выходной формат          : Пользовательский кодировщик
Выбранный битрейт        : 1024 kBit/s
Качество                 : Высокий
Добавление ID3-тэга      : Нет
Утилита сжатия           : C:\Program Files\Exact Audio Copy\FLAC\FLAC.EXE
Дополнительные параметры : -6 -V -T "ARTIST=%a" -T "TITLE=%t" -T "ALBUM=%g" -T "DATE=%y" -T "TRACKNUMBER=%n" -T "GENRE=%m" -T "COMMENT=%e" %s -o %d
TOC извлечённого CD
     Трек |   Старт  | Длительность | Начальный сектор | Конечный сектор
    ---------------------------------------------------------------------
       1  |  0:00.00 |    6:07.20   |           0      |      27544
       2  |  6:07.20 |    6:06.37   |       27545      |      55031
       3  | 12:13.57 |    5:16.20   |       55032      |      78751
       4  | 17:30.02 |    5:50.29   |       78752      |     105030
       5  | 23:20.31 |    5:16.30   |      105031      |     128760
       6  | 28:36.61 |    5:59.54   |      128761      |     155739
       7  | 34:36.40 |    5:17.62   |      155740      |     179576
       8  | 39:54.27 |    5:36.05   |      179577      |     204781
       9  | 45:30.32 |    6:18.23   |      204782      |     233154
      10  | 51:48.55 |    6:46.74   |      233155      |     263678
      11  | 58:35.54 |    5:56.18   |      263679      |     290396
      12  | 64:31.72 |    5:28.14   |      290397      |     315010
Характеристики диапазона извлечения и сообщения об ошибках
Выбранный диапазон
     Имя файла C:\Users\Алексей\Desktop\iPOD\Prager Handgriff - Arbeit, Sport Und Spiel.wav
     Пиковый уровень 97.7 %
     Качество диапазона 100.0 %
     CRC теста 57EDC432
     CRC копии 57EDC432
     Копирование... OK
Ошибок не произошло
AccurateRip: сводка
Трек  1  нет в базе данных
Трек  2  нет в базе данных
Трек  3  нет в базе данных
Трек  4  нет в базе данных
Трек  5  нет в базе данных
Трек  6  нет в базе данных
Трек  7  нет в базе данных
Трек  8  нет в базе данных
Трек  9  нет в базе данных
Трек 10  нет в базе данных
Трек 11  нет в базе данных
Трек 12  нет в базе данных
Ни одного трека нет в базе AccurateRip
Конец отчёта
Код:
REM GENRE EBM
REM DATE 2011
REM DISCID A010680C
REM COMMENT "ExactAudioCopy v0.99pb5"
PERFORMER "Prager Handgriff"
TITLE "Arbeit, Sport Und Spiel"
FILE "Prager Handgriff - Arbeit, Sport Und Spiel.flac" WAVE
  TRACK 01 AUDIO
    TITLE "Elektrorepublik"
    PERFORMER "Prager Handgriff"
    INDEX 01 00:00:00
  TRACK 02 AUDIO
    TITLE "Bis an das Ende der Welt"
    PERFORMER "Prager Handgriff"
    INDEX 00 06:05:20
    INDEX 01 06:07:20
  TRACK 03 AUDIO
    TITLE "Vorwarts"
    PERFORMER "Prager Handgriff"
    INDEX 00 12:11:57
    INDEX 01 12:13:57
  TRACK 04 AUDIO
    TITLE "Ich denke Dein"
    PERFORMER "Prager Handgriff"
    INDEX 00 17:28:02
    INDEX 01 17:30:02
  TRACK 05 AUDIO
    TITLE "Der Aufschwung"
    PERFORMER "Prager Handgriff"
    INDEX 00 23:18:31
    INDEX 01 23:20:31
  TRACK 06 AUDIO
    TITLE "Die dunkle Ewigkeit"
    PERFORMER "Prager Handgriff"
    INDEX 00 28:34:61
    INDEX 01 28:36:61
  TRACK 07 AUDIO
    TITLE "Im Westen nichts Neues"
    PERFORMER "Prager Handgriff"
    INDEX 00 34:34:40
    INDEX 01 34:36:40
  TRACK 08 AUDIO
    TITLE "Ich finde Dich"
    PERFORMER "Prager Handgriff"
    INDEX 00 39:52:27
    INDEX 01 39:54:27
  TRACK 09 AUDIO
    TITLE "Arbeit, Sport und Spiel"
    PERFORMER "Prager Handgriff"
    INDEX 00 45:28:32
    INDEX 01 45:30:32
  TRACK 10 AUDIO
    TITLE "Sieben Rosen"
    PERFORMER "Prager Handgriff"
    INDEX 00 51:46:55
    INDEX 01 51:48:55
  TRACK 11 AUDIO
    TITLE "Defekt"
    PERFORMER "Prager Handgriff"
    INDEX 00 58:33:54
    INDEX 01 58:35:54
  TRACK 12 AUDIO
    TITLE "Wanderratten"
    PERFORMER "Prager Handgriff"
    INDEX 00 64:29:72
    INDEX 01 64:31:72
Код:
[url=https://fastpic.ru/view/26/2011/0724/e1905078d9809de02e989b558543bf77.jpg.html][img]http://i26.fastpic.ru/thumb/2011/0724/77/e1905078d9809de02e989b558543bf77.jpeg[/img][/url][url=https://fastpic.ru/view/26/2011/0724/d3d7a92dfcde145ce610f762891c8237.jpg.html][img]http://i26.fastpic.ru/thumb/2011/0724/37/d3d7a92dfcde145ce610f762891c8237.jpeg[/img][/url][url=https://fastpic.ru/view/25/2011/0724/78269ce44948a1810b738b9a604a7541.jpg.html][img]http://i25.fastpic.ru/thumb/2011/0724/41/78269ce44948a1810b738b9a604a7541.jpeg[/img][/url][url=https://fastpic.ru/view/25/2011/0724/5abd5864a7959aa0d83d219ccaf76966.jpg.html][img]http://i25.fastpic.ru/thumb/2011/0724/66/5abd5864a7959aa0d83d219ccaf76966.jpeg[/img][/url]
Выражаю благодарность kergarn`у за HQ scans!
Правила, инструкции, FAQ!!!
Торрент  Добавлен [26 июн 2020, 17:36] Скачать торрент Магнет ссылка
Скачать торрент
[ Размер 11.85 КБ / Просмотров 7 ]

Статус
Проверен 
 
Размер  538.46 МБ
Приватный: Нет (DHT включён)
.torrent скачан  0
 


     Отправить личное сообщение
   
Страница 1 из 1
Показать сообщения за:  Поле сортировки  
Начать новую тему Ответить на тему


Сейчас этот форум просматривают: нет зарегистрированных пользователей и гости: 0


Вы не можете начинать темы
Вы не можете отвечать на сообщения
Вы не можете редактировать свои сообщения
Вы не можете удалять свои сообщения
Вы не можете добавлять вложения

Перейти:  
cron