Начать новую тему Ответить на тему
Статистика раздачи
Размер: 424.51 МБ | Добавлен: 26 июн 2020, 21:08 | Скачали: 0
Сидеров: 0  [0 байт/сек]    Личеров: 0  [0 байт/сек]
Пред. тема | След. тема 

Автор
Сообщение

СообщениеДобавлено: 26 июн 2020, 21:08 

Ответить с цитатой 

PAKT. BERLIN
Жанр: EBM
Страна-производитель диска: Germany
Год издания: 2012
Издатель (лейбл): Out Of Line
Номер по каталогу: OUT 543
Страна: Germany
Аудиокодек: FLAC (*.flac)
Тип рипа: image+.cue
Битрейт аудио: lossless
Продолжительность: 46:22
Источник (релизер): Собственный CD
Наличие сканов в содержимом раздачи: да
Треклист:
1. Freitag der 13.
2. Freiheit
3. Burn Home Burn
4. Schwarz & Weiß
5. Lichterloh
6. Grey into Red
7. All Reminds me
8. Egoshooter
9. Revolution
10. Liebespakt
11. The Fish Rots From The Head Down
12. Outro
Код:
Exact Audio Copy V1.0 beta 3 from 29. August 2011
Отчёт EAC об извлечении, выполненном 18. мая 2012, 20:37
Pakt / Berlin
Дисковод: HL-DT-STDVDRAM GT10N   Adapter: 2  ID: 0
Режим чтения                 : Достоверность
Использование точного потока : Да
Отключение кэша аудио        : Да
Использование указателей C2  : Нет
Коррекция смещения при чтении                     : 102
Способность читать области Lead-in и Lead-out     : Нет
Заполнение пропущенных сэмплов тишиной            : Да
Удаление блоков с тишиной в начале и конце        : Нет
При вычислениях CRC использовались нулевые сэмплы : Да
Интерфейс                                         : Встроенный Win32-интерфейс для Win NT/2000
Выходной формат          : Пользовательский кодировщик
Выбранный битрейт        : 1024 kBit/s
Качество                 : Высокий
Добавление ID3-тега      : Нет
Утилита сжатия           : C:\Program Files\Exact Audio Copy\FLAC\FLAC.EXE
Дополнительные параметры : -V -8 %source%
TOC извлечённого CD
     Трек |   Старт  | Длительность | Начальный сектор | Конечный сектор
    ---------------------------------------------------------------------
       1  |  0:00.00 |    4:37.28   |           0      |      20802
       2  |  4:37.28 |    3:28.41   |       20803      |      36443
       3  |  8:05.69 |    4:01.73   |       36444      |      54591
       4  | 12:07.67 |    3:23.67   |       54592      |      69883
       5  | 15:31.59 |    4:13.64   |       69884      |      88922
       6  | 19:45.48 |    3:48.46   |       88923      |     106068
       7  | 23:34.19 |    4:20.40   |      106069      |     125608
       8  | 27:54.59 |    3:49.34   |      125609      |     142817
       9  | 31:44.18 |    3:30.13   |      142818      |     158580
      10  | 35:14.31 |    3:59.68   |      158581      |     176573
      11  | 39:14.24 |    4:08.34   |      176574      |     195207
      12  | 43:22.58 |    2:57.45   |      195208      |     208527
Характеристики диапазона извлечения и сообщения об ошибках
Выбранный диапазон
     Имя файла C:\Documents and Settings\AVTOTMIN\Мои документы\Pakt - Berlin.wav
     Пиковый уровень 100.0 %
     Скорость извлечения 1.7 X
     Качество диапазона 99.9 %
     CRC теста 267DF21D
     CRC копии 267DF21D
     Копирование... OK
Ошибок не произошло
AccurateRip: сводка
Трек  1  отсутствует в базе данных
Трек  2  отсутствует в базе данных
Трек  3  отсутствует в базе данных
Трек  4  отсутствует в базе данных
Трек  5  отсутствует в базе данных
Трек  6  отсутствует в базе данных
Трек  7  отсутствует в базе данных
Трек  8  отсутствует в базе данных
Трек  9  отсутствует в базе данных
Трек 10  отсутствует в базе данных
Трек 11  отсутствует в базе данных
Трек 12  отсутствует в базе данных
Ни одного трека нет в базе AccurateRip
Конец отчёта
==== Контрольная сумма отчёта 7FBF149C03657FF3F9EC75DF9B66F6CFEEE806AEF7632708E5F410F40E2DC9D1 ====
Правила, инструкции, FAQ!!!
Торрент  Добавлен [26 июн 2020, 21:08] Скачать торрент Магнет ссылка
Скачать торрент
[ Размер 17.65 КБ / Просмотров 7 ]

Статус
Проверен 
 
Размер  424.51 МБ
Приватный: Нет (DHT включён)
.torrent скачан  0
 


     Отправить личное сообщение
   
Страница 1 из 1
Показать сообщения за:  Поле сортировки  
Начать новую тему Ответить на тему


Сейчас этот форум просматривают: нет зарегистрированных пользователей и гости: 0


Вы не можете начинать темы
Вы не можете отвечать на сообщения
Вы не можете редактировать свои сообщения
Вы не можете удалять свои сообщения
Вы не можете добавлять вложения

Перейти:  
cron