Начать новую тему Ответить на тему
Статистика раздачи
Размер: 308.53 МБ | Добавлен: 26 июн 2020, 17:24 | Скачали: 1
Сидеров: 12  [0 байт/сек]    Личеров: 0  [0 байт/сек]
Пред. тема | След. тема 

Автор
Сообщение

СообщениеДобавлено: 26 июн 2020, 17:24 

Ответить с цитатой 

Orange Sector - Mindfuck
Жанр: EBM
Год выпуска диска: 2009
Производитель диска: Infacted Recordings, Germany
Аудио кодек: FLAC
Тип рипа: image+.cue
Битрейт аудио: lossless
Продолжительность: 48:08.14
Треклист:
01. Death Rides The Highway 2:59
02. Untertage 4:12
03. Sturmgeist 2:45
04. Body Bag 3:01
05. Maschinenkind 3:11
06. Legend 3:44
07. Haut 3:27
08. Infiziert 2:25
09. Wir Sind Stahl 3:11
10. Energie 3:11
11. Death Rides The Highway (Jesus Mix) 4:07
12. Sturmgeist (Club Massacre Mix) 3:45
13. Maschinenkind (Mauerwelt Mix) 3:51
14. Energie (OSP Remix) 4:12
Доп. информация: CD из личной коллекции.
Exact Audio Copy V0.99 prebeta 5 from 4. May 2009
Отчёт EAC об извлечении, выполненном 20. августа 2010, 21:27
Orange Sector / Mindfuck
Дисковод: TSSTcorpCDDVDW TS-L632H Adapter: 0 ID: 0
Режим чтения : Достоверность
Использование точного потока : Да
Отключение кэша аудио : Да
Использование указателей C2 : Нет
Коррекция смещения при чтении : 6
Способность читать области Lead-in и Lead-out : Нет
Заполнение пропущенных сэмплов тишиной : Да
Удаление блоков с тишиной в начале и конце : Нет
При вычислениях CRC использовались нулевые сэмплы : Да
Интерфейс : Встроенный Win32-интерфейс для Win NT/2000
Выходной формат : Пользовательский кодировщик
Выбранный битрейт : 1024 kBit/s
Качество : Высокий
Добавление ID3-тэга : Нет
Утилита сжатия : C:\Program Files\Exact Audio Copy\FLAC\FLAC.EXE
Дополнительные параметры : -6 -V -T "ARTIST=%a" -T "TITLE=%t" -T "ALBUM=%g" -T "DATE=%y" -T "TRACKNUMBER=%n" -T "GENRE=%m" -T "COMMENT=%e" %s -o %d
TOC извлечённого CD
Трек | Старт | Длительность | Начальный сектор | Конечный сектор
---------------------------------------------------------------------
1 | 0:00.00 | 2:59.24 | 0 | 13448
2 | 2:59.24 | 4:12.38 | 13449 | 32386
3 | 7:11.62 | 2:45.60 | 32387 | 44821
4 | 9:57.47 | 3:01.56 | 44822 | 58452
5 | 12:59.28 | 3:11.24 | 58453 | 72801
6 | 16:10.52 | 3:44.01 | 72802 | 89602
7 | 19:54.53 | 3:27.28 | 89603 | 105155
8 | 23:22.06 | 2:25.36 | 105156 | 116066
9 | 25:47.42 | 3:11.05 | 116067 | 130396
10 | 28:58.47 | 3:11.71 | 130397 | 144792
11 | 32:10.43 | 4:07.73 | 144793 | 163390
12 | 36:18.41 | 3:45.59 | 163391 | 180324
13 | 40:04.25 | 3:51.58 | 180325 | 197707
14 | 43:56.08 | 4:12.06 | 197708 | 216613
Характеристики диапазона извлечения и сообщения об ошибках
Выбранный диапазон
Имя файла C:\Users\Алексей\Desktop\iPOD\Orange Sector - Mindfuck.wav
Пиковый уровень 98.8 %
Качество диапазона 100.0 %
CRC теста D6796E7A
CRC копии D6796E7A
Копирование... OK
Ошибок не произошло
AccurateRip: сводка
Трек 1 нет в базе данных
Трек 2 нет в базе данных
Трек 3 нет в базе данных
Трек 4 нет в базе данных
Трек 5 нет в базе данных
Трек 6 нет в базе данных
Трек 7 нет в базе данных
Трек 8 нет в базе данных
Трек 9 нет в базе данных
Трек 10 нет в базе данных
Трек 11 нет в базе данных
Трек 12 нет в базе данных
Трек 13 нет в базе данных
Трек 14 нет в базе данных
Ни одного трека нет в базе AccurateRip
Конец отчёта
REM GENRE EBM
REM DISCID C10B480E
REM COMMENT "ExactAudioCopy v0.99pb5"
PERFORMER "Orange Sector"
TITLE "Mindfuck "
FILE "Orange Sector - Mindfuck.flac" WAVE
TRACK 01 AUDIO
TITLE "Death Rides The Highway"
PERFORMER "Orange Sector"
INDEX 01 00:00:00
TRACK 02 AUDIO
TITLE "Untertage"
PERFORMER "Orange Sector"
INDEX 00 02:57:24
INDEX 01 02:59:24
TRACK 03 AUDIO
TITLE "Sturmgeist"
PERFORMER "Orange Sector"
INDEX 00 07:09:62
INDEX 01 07:11:62
TRACK 04 AUDIO
TITLE "Body Bag"
PERFORMER "Orange Sector"
INDEX 00 09:55:47
INDEX 01 09:57:47
TRACK 05 AUDIO
TITLE "Maschinenkind"
PERFORMER "Orange Sector"
INDEX 00 12:57:28
INDEX 01 12:59:28
TRACK 06 AUDIO
TITLE "Legend"
PERFORMER "Orange Sector"
INDEX 00 16:08:52
INDEX 01 16:10:52
TRACK 07 AUDIO
TITLE "Haut"
PERFORMER "Orange Sector"
INDEX 00 19:52:53
INDEX 01 19:54:53
TRACK 08 AUDIO
TITLE "Infiziert"
PERFORMER "Orange Sector"
INDEX 00 23:20:06
INDEX 01 23:22:06
TRACK 09 AUDIO
TITLE "Wir Sind Stahl"
PERFORMER "Orange Sector"
INDEX 00 25:45:42
INDEX 01 25:47:42
TRACK 10 AUDIO
TITLE "Energie"
PERFORMER "Orange Sector"
INDEX 00 28:56:47
INDEX 01 28:58:47
TRACK 11 AUDIO
TITLE "Death Rides The Highway (Jesus Mix)"
PERFORMER "Orange Sector"
INDEX 00 32:08:43
INDEX 01 32:10:43
TRACK 12 AUDIO
TITLE "Sturmgeist (Club Massacre Mix)"
PERFORMER "Orange Sector"
INDEX 00 36:16:41
INDEX 01 36:18:41
TRACK 13 AUDIO
TITLE "Maschinenkind (Mauerwelt Mix)"
PERFORMER "Orange Sector"
INDEX 00 40:02:25
INDEX 01 40:04:25
TRACK 14 AUDIO
TITLE "energie (osp.Mix)"
PERFORMER "Orange Sector"
INDEX 00 43:54:08
INDEX 01 43:56:08
Правила, инструкции, FAQ!!!
Торрент  Добавлен [26 июн 2020, 17:24] Скачать торрент Магнет ссылка
Скачать торрент
[ Размер 12.7 КБ / Просмотров 19 ]

Статус
Проверен 
 
Размер  308.53 МБ
Приватный: Нет (DHT включён)
.torrent скачан  1
 


     Отправить личное сообщение
   
Страница 1 из 1
Показать сообщения за:  Поле сортировки  
Начать новую тему Ответить на тему


Сейчас этот форум просматривают: нет зарегистрированных пользователей и гости: 0


Вы не можете начинать темы
Вы не можете отвечать на сообщения
Вы не можете редактировать свои сообщения
Вы не можете удалять свои сообщения
Вы не можете добавлять вложения

Перейти:  
cron