Начать новую тему Ответить на тему
Статистика раздачи
Размер: 340.21 МБ | Добавлен: 26 июн 2020, 17:47 | Скачали: 0
Сидеров: 0  [0 байт/сек]    Личеров: 0  [0 байт/сек]
Пред. тема | След. тема 

Автор
Сообщение

СообщениеДобавлено: 26 июн 2020, 17:47 

Ответить с цитатой 

Oldschool Union / Ala Ole, Ela!
Жанр: EBM
Страна-производитель диска: Italy
Год издания: 2012
Издатель (лейбл): EK Product
Номер по каталогу: EKPCD014
Страна: Finland
Аудиокодек: FLAC (*.flac)
Тип рипа: image+.cue
Битрейт аудио: lossless
Продолжительность: 0:47:19.53
Источник (релизер): CD из личной коллекции.
Наличие сканов в содержимом раздачи: да
Треклист:
01. Pulttaaja 2:05
02. Ala Ole, Ela! 3:08
03. Naennaisdemokratiaa 2:56
04. Mika Riivaa 2:47
05. Kanniman 3:21
06. Kebabilla 2:40
07. Tyovoimapula 1:41
08. Rahaa Sataa Taivaalta 2:25
09. Satatonnia Metallia 3:16
10. This Line Will Not Break 2:31
11. Bodyfest 1:45
12. Muuri Ja Railo 2:51
13. Oire 1:18
14. Pohjoinen Taivas (V2.0) 2:07
15. Kanniman (Remix) 2:22
16. Ala Ole, Ela! (Spark! Remix) 1:38
Discogs
Код:
Exact Audio Copy V1.0 beta 3 from 29. August 2011
Отчёт EAC об извлечении, выполненном 25. июня 2012, 8:58
Oldschool Union / Ala Ole, Ela!
Дисковод: PIONEER DVD-RW  DVR-XD10   Adapter: 1  ID: 0
Режим чтения                 : Достоверность
Использование точного потока : Да
Отключение кэша аудио        : Да
Использование указателей C2  : Нет
Коррекция смещения при чтении                     : 96
Способность читать области Lead-in и Lead-out     : Нет
Заполнение пропущенных сэмплов тишиной            : Да
Удаление блоков с тишиной в начале и конце        : Нет
При вычислениях CRC использовались нулевые сэмплы : Да
Интерфейс                                         : Встроенный Win32-интерфейс для Win NT/2000
Выходной формат          : Пользовательский кодировщик
Выбранный битрейт        : 1024 kBit/s
Качество                 : Высокий
Добавление ID3-тега      : Нет
Утилита сжатия           : C:\Program Files\Exact Audio Copy\FLAC\FLAC.EXE
Дополнительные параметры : -V -8 -T "Date=%year%" -T "Genre=%genre%" %source%
TOC извлечённого CD
     Трек |   Старт  | Длительность | Начальный сектор | Конечный сектор
    ---------------------------------------------------------------------
       1  |  0:00.00 |    1:54.65   |           0      |       8614
       2  |  1:54.65 |    3:01.08   |        8615      |      22197
       3  |  4:55.73 |    2:52.09   |       22198      |      35106
       4  |  7:48.07 |    2:44.28   |       35107      |      47434
       5  | 10:32.35 |    3:45.46   |       47435      |      64355
       6  | 14:18.06 |    3:04.46   |       64356      |      78201
       7  | 17:22.52 |    2:02.27   |       78202      |      87378
       8  | 19:25.04 |    2:38.28   |       87379      |      99256
       9  | 22:03.32 |    3:49.65   |       99257      |     116496
      10  | 25:53.22 |    3:07.27   |      116497      |     130548
      11  | 29:00.49 |    2:32.10   |      130549      |     141958
      12  | 31:32.59 |    3:52.09   |      141959      |     159367
      13  | 35:24.68 |    1:57.52   |      159368      |     168194
      14  | 37:22.45 |    3:18.46   |      168195      |     183090
      15  | 40:41.16 |    3:39.45   |      183091      |     199560
      16  | 44:20.61 |    2:58.67   |      199561      |     212977
Характеристики диапазона извлечения и сообщения об ошибках
Выбранный диапазон
     Имя файла C:\Users\Алексей\Desktop\iPOD\Oldschool Union - Ala Ole, Ela!.wav
     Пиковый уровень 99.4 %
     Скорость извлечения 3.9 X
     Качество диапазона 100.0 %
     CRC теста 1DE70326
     CRC копии 1DE70326
     Копирование... OK
Ошибок не произошло
AccurateRip: сводка
Трек  1  отсутствует в базе данных
Трек  2  отсутствует в базе данных
Трек  3  отсутствует в базе данных
Трек  4  отсутствует в базе данных
Трек  5  отсутствует в базе данных
Трек  6  отсутствует в базе данных
Трек  7  отсутствует в базе данных
Трек  8  отсутствует в базе данных
Трек  9  отсутствует в базе данных
Трек 10  отсутствует в базе данных
Трек 11  отсутствует в базе данных
Трек 12  отсутствует в базе данных
Трек 13  отсутствует в базе данных
Трек 14  отсутствует в базе данных
Трек 15  отсутствует в базе данных
Трек 16  отсутствует в базе данных
Ни одного трека нет в базе AccurateRip
Конец отчёта
==== Контрольная сумма отчёта 24A217353E0BF16B23EAC5367DD968D144F75A5DB9C866DC323E9829539FD0AF ====
Код:
REM GENRE EBM
REM DATE 2012
REM DISCID CD0B1710
REM COMMENT "ExactAudioCopy v1.0b3"
CATALOG 8051773120794
PERFORMER "Oldschool Union"
TITLE "Ala Ole, Ela!"
FILE "Oldschool Union - Ala Ole, Ela!.flac" WAVE
  TRACK 01 AUDIO
    TITLE "Pulttaaja"
    PERFORMER "Oldschool Union"
    ISRC ITCD61200001
    FLAGS DCP
    INDEX 01 00:00:00
  TRACK 02 AUDIO
    TITLE "Ala Ole, Ela!"
    PERFORMER "Oldschool Union"
    ISRC ITCD61200002
    FLAGS DCP
    INDEX 00 01:52:65
    INDEX 01 01:54:65
  TRACK 03 AUDIO
    TITLE "Naennaisdemokratiaa"
    PERFORMER "Oldschool Union"
    ISRC ITCD61200003
    FLAGS DCP
    INDEX 00 04:53:73
    INDEX 01 04:55:73
  TRACK 04 AUDIO
    TITLE "Mika Riivaa"
    PERFORMER "Oldschool Union"
    ISRC ITCD61200004
    FLAGS DCP
    INDEX 00 07:46:07
    INDEX 01 07:48:07
  TRACK 05 AUDIO
    TITLE "Kanniman"
    PERFORMER "Oldschool Union"
    ISRC ITCD61200005
    FLAGS DCP
    INDEX 00 10:30:35
    INDEX 01 10:32:35
  TRACK 06 AUDIO
    TITLE "Kebabilla"
    PERFORMER "Oldschool Union"
    ISRC ITCD61200006
    FLAGS DCP
    INDEX 00 14:16:06
    INDEX 01 14:18:06
  TRACK 07 AUDIO
    TITLE "Tyovoimapula"
    PERFORMER "Oldschool Union"
    ISRC ITCD61200007
    FLAGS DCP
    INDEX 00 17:20:52
    INDEX 01 17:22:52
  TRACK 08 AUDIO
    TITLE "Rahaa Sataa Taivaalta"
    PERFORMER "Oldschool Union"
    ISRC ITCD61200008
    FLAGS DCP
    INDEX 00 19:23:04
    INDEX 01 19:25:04
  TRACK 09 AUDIO
    TITLE "Satatonnia Metallia"
    PERFORMER "Oldschool Union"
    ISRC ITCD61200009
    FLAGS DCP
    INDEX 00 22:01:32
    INDEX 01 22:03:32
  TRACK 10 AUDIO
    TITLE "This Line Will Not Break "
    PERFORMER "Oldschool Union"
    ISRC ITCD61200010
    FLAGS DCP
    INDEX 00 25:51:22
    INDEX 01 25:53:22
  TRACK 11 AUDIO
    TITLE "Bodyfest"
    PERFORMER "Oldschool Union"
    ISRC ITCD61200011
    FLAGS DCP
    INDEX 00 28:58:49
    INDEX 01 29:00:49
  TRACK 12 AUDIO
    TITLE "Muuri Ja Railo"
    PERFORMER "Oldschool Union"
    ISRC ITCD61200012
    FLAGS DCP
    INDEX 00 31:30:59
    INDEX 01 31:32:59
  TRACK 13 AUDIO
    TITLE "Oire"
    PERFORMER "Oldschool Union"
    ISRC ITCD61200013
    FLAGS DCP
    INDEX 00 35:22:68
    INDEX 01 35:24:68
  TRACK 14 AUDIO
    TITLE "Pohjoinen Taivas (Version 2.0)"
    PERFORMER "Oldschool Union"
    ISRC ITCD61200014
    FLAGS DCP
    INDEX 00 37:20:45
    INDEX 01 37:22:45
  TRACK 15 AUDIO
    TITLE "Kanniman (Remix)"
    PERFORMER "Oldschool Union"
    ISRC ITCD61200015
    FLAGS DCP
    INDEX 00 40:39:16
    INDEX 01 40:41:16
  TRACK 16 AUDIO
    TITLE "Ala Ole, Ela! (SPARK! rmx)"
    PERFORMER "Oldschool Union"
    ISRC ITCD61200016
    FLAGS DCP
    INDEX 00 44:18:61
    INDEX 01 44:20:61
Код:
[url=https://fastpic.ru/view/41/2012/0703/f213ba13b85f8bb4f40afe00a8b6a3b3.jpg.html][img]http://i41.fastpic.ru/thumb/2012/0703/b3/f213ba13b85f8bb4f40afe00a8b6a3b3.jpeg[/img][/url][url=https://fastpic.ru/view/41/2012/0703/c9371d5c85afcce7b1fe12aafcfae84c.jpg.html][img]http://i41.fastpic.ru/thumb/2012/0703/4c/c9371d5c85afcce7b1fe12aafcfae84c.jpeg[/img][/url][url=https://fastpic.ru/view/42/2012/0703/653768a81a8bc6c008cbcfc99832956e.jpg.html][img]http://i42.fastpic.ru/thumb/2012/0703/6e/653768a81a8bc6c008cbcfc99832956e.jpeg[/img][/url][url=https://fastpic.ru/view/43/2012/0703/36983e23fbb081edb54693b46ef2a259.jpg.html][img]http://i43.fastpic.ru/thumb/2012/0703/59/36983e23fbb081edb54693b46ef2a259.jpeg[/img][/url][url=https://fastpic.ru/view/40/2012/0703/e22680006c440b2f71c8d69e5bd8912f.jpg.html][img]http://i40.fastpic.ru/thumb/2012/0703/2f/e22680006c440b2f71c8d69e5bd8912f.jpeg[/img][/url]
Правила, инструкции, FAQ!!!
Торрент  Добавлен [26 июн 2020, 17:47] Скачать торрент Магнет ссылка
Скачать торрент
[ Размер 14.42 КБ / Просмотров 8 ]

Статус
Проверен 
 
Размер  340.21 МБ
Приватный: Нет (DHT включён)
.torrent скачан  0
 


     Отправить личное сообщение
   
Страница 1 из 1
Показать сообщения за:  Поле сортировки  
Начать новую тему Ответить на тему


Сейчас этот форум просматривают: нет зарегистрированных пользователей и гости: 0


Вы не можете начинать темы
Вы не можете отвечать на сообщения
Вы не можете редактировать свои сообщения
Вы не можете удалять свои сообщения
Вы не можете добавлять вложения

Перейти:  
cron