Начать новую тему Ответить на тему
Статистика раздачи
Размер: 496 МБ | Добавлен: 26 июн 2020, 16:48 | Скачали: 0
Сидеров: 0  [0 байт/сек]    Личеров: 0  [0 байт/сек]
Пред. тема | След. тема 

Автор
Сообщение

СообщениеДобавлено: 26 июн 2020, 16:48 

Ответить с цитатой 

NTRSN / Hardlines
Жанр: EBM
Страна-производитель диска: USA
Год издания диска: 2011
Издатель (лейбл): Sigsaly Transmissions / EK Product
Номер по каталогу: STEKCD0001
Страна: Belgium
Аудиокодек: FLAC (*.flac)
Тип рипа: image+.cue
Битрейт аудио: lossless
Продолжительность: 1:13:35.74
Источник (релизер): CD из личной коллекции.
Наличие сканов в содержимом раздачи: да
Треклист:
01. Parascope (Intro) 4:21
02. Red Day 5:12
03. We Look 5:43
04. Talking Blue 3:15
05. Cutting 6:16
06. Move On / And No Stop 3:58
07. Electric Love (mk II) 5:24
08. You And You 3:42
09. Hardlines 5:47
10. Talking Strangers 5:12
11. Chromatic Move 4:18
12. Secret Smile 4:55
13. Parascope (Outro) 6:11
14. Electric Love (Autodafeh Remix) 5:38
15. Electricluv (Parade Ground Remix) 3:43
Discogs
"Hard Edged & Beautiful Analog Electronic…"
Код:
Exact Audio Copy V1.0 beta 3 from 29. August 2011
Отчёт EAC об извлечении, выполненном 13. декабря 2011, 9:45
Ntrsn / Hardlines
Дисковод: TSSTcorpCDDVDW TS-L632H   Adapter: 0  ID: 0
Режим чтения                 : Достоверность
Использование точного потока : Да
Отключение кэша аудио        : Да
Использование указателей C2  : Нет
Коррекция смещения при чтении                     : 6
Способность читать области Lead-in и Lead-out     : Нет
Заполнение пропущенных сэмплов тишиной            : Да
Удаление блоков с тишиной в начале и конце        : Нет
При вычислениях CRC использовались нулевые сэмплы : Да
Интерфейс                                         : Встроенный Win32-интерфейс для Win NT/2000
Выходной формат          : Пользовательский кодировщик
Выбранный битрейт        : 1024 kBit/s
Качество                 : Высокий
Добавление ID3-тега      : Нет
Утилита сжатия           : C:\Program Files\Exact Audio Copy\FLAC\FLAC.EXE
Дополнительные параметры : -6 -V -T "ARTIST=%artist%" -T "TITLE=%title%" -T "ALBUM=%albumtitle%" -T "DATE=%year%" -T "TRACKNUMBER=%tracknr%" -T "GENRE=%genre%" -T "COMMENT=%comment%" -T "BAND=%albuminterpret%" -T "ALBUMARTIST=%albuminterpret%" -T "COMPOSER=%composer%" %haslyrics%--tag-from-file=LYRICS="%lyricsfile%"%haslyrics% -T "DISCNUMBER=%cdnumber%" -T "TOTALDISCS=%totalcds%" -T "TOTALTRACKS=%numtracks%" %hascover%--picture="%coverfile%"%hascover% %source% -o %dest%
TOC извлечённого CD
     Трек |   Старт  | Длительность | Начальный сектор | Конечный сектор
    ---------------------------------------------------------------------
       1  |  0:00.00 |    4:20.50   |           0      |      19549
       2  |  4:20.50 |    5:12.12   |       19550      |      42961
       3  |  9:32.62 |    5:43.32   |       42962      |      68718
       4  | 15:16.19 |    3:15.00   |       68719      |      83343
       5  | 18:31.19 |    6:16.00   |       83344      |     111543
       6  | 24:47.19 |    3:57.72   |      111544      |     129390
       7  | 28:45.16 |    5:24.00   |      129391      |     153690
       8  | 34:09.16 |    3:42.00   |      153691      |     170340
       9  | 37:51.16 |    5:47.00   |      170341      |     196365
      10  | 43:38.16 |    5:12.00   |      196366      |     219765
      11  | 48:50.16 |    4:18.00   |      219766      |     239115
      12  | 53:08.16 |    4:55.21   |      239116      |     261261
      13  | 58:03.37 |    6:11.00   |      261262      |     289086
      14  | 64:14.37 |    5:38.00   |      289087      |     314436
      15  | 69:52.37 |    3:43.37   |      314437      |     331198
Характеристики диапазона извлечения и сообщения об ошибках
Выбранный диапазон
     Имя файла C:\Users\Алексей\Desktop\iPOD\Ntrsn - Hardlines.wav
     Пиковый уровень 98.8 %
     Скорость извлечения 4.5 X
     Качество диапазона 100.0 %
     CRC теста C6C066CC
     CRC копии C6C066CC
     Копирование... OK
Ошибок не произошло
AccurateRip: сводка
Трек  1  отсутствует в базе данных
Трек  2  отсутствует в базе данных
Трек  3  отсутствует в базе данных
Трек  4  отсутствует в базе данных
Трек  5  отсутствует в базе данных
Трек  6  отсутствует в базе данных
Трек  7  отсутствует в базе данных
Трек  8  отсутствует в базе данных
Трек  9  отсутствует в базе данных
Трек 10  отсутствует в базе данных
Трек 11  отсутствует в базе данных
Трек 12  отсутствует в базе данных
Трек 13  отсутствует в базе данных
Трек 14  отсутствует в базе данных
Трек 15  отсутствует в базе данных
Ни одного трека нет в базе AccurateRip
Конец отчёта
==== Контрольная сумма отчёта 315B3CC9C9F7F0D20D9E4588E6C583B0AAA7E607867ADC7C1F615E0A4AA4C8FD ====
Код:
REM GENRE EBM
REM DATE 2011
REM DISCID D4113F0F
REM COMMENT "ExactAudioCopy v1.0b3"
PERFORMER "Ntrsn"
TITLE "Hardlines"
FILE "Ntrsn - Hardlines.flac" WAVE
  TRACK 01 AUDIO
    TITLE "Parascope (Intro)"
    PERFORMER "Ntrsn"
    INDEX 01 00:00:00
  TRACK 02 AUDIO
    TITLE "Red Day"
    PERFORMER "Ntrsn"
    INDEX 00 04:18:50
    INDEX 01 04:20:50
  TRACK 03 AUDIO
    TITLE "We Look Twice (Afronica)"
    PERFORMER "Ntrsn"
    INDEX 00 09:30:62
    INDEX 01 09:32:62
  TRACK 04 AUDIO
    TITLE "Talking Blue"
    PERFORMER "Ntrsn"
    INDEX 00 15:14:19
    INDEX 01 15:16:19
  TRACK 05 AUDIO
    TITLE "Cutting"
    PERFORMER "Ntrsn"
    INDEX 00 18:29:19
    INDEX 01 18:31:19
  TRACK 06 AUDIO
    TITLE "Move On (And No Stop)"
    PERFORMER "Ntrsn"
    INDEX 00 24:45:19
    INDEX 01 24:47:19
  TRACK 07 AUDIO
    TITLE "Electric Love"
    PERFORMER "Ntrsn"
    INDEX 00 28:43:16
    INDEX 01 28:45:16
  TRACK 08 AUDIO
    TITLE "You and You"
    PERFORMER "Ntrsn"
    INDEX 00 34:07:16
    INDEX 01 34:09:16
  TRACK 09 AUDIO
    TITLE "Hardlines"
    PERFORMER "Ntrsn"
    INDEX 00 37:49:16
    INDEX 01 37:51:16
  TRACK 10 AUDIO
    TITLE "Talking Strangers"
    PERFORMER "Ntrsn"
    INDEX 00 43:36:16
    INDEX 01 43:38:16
  TRACK 11 AUDIO
    TITLE "Chromatic Move"
    PERFORMER "Ntrsn"
    INDEX 00 48:48:16
    INDEX 01 48:50:16
  TRACK 12 AUDIO
    TITLE "Secret Smile"
    PERFORMER "Ntrsn"
    INDEX 00 53:06:16
    INDEX 01 53:08:16
  TRACK 13 AUDIO
    TITLE "Parascope (Outro)"
    PERFORMER "Ntrsn"
    INDEX 00 58:01:37
    INDEX 01 58:03:37
  TRACK 14 AUDIO
    TITLE "Electric Love (Autodafeh  Remix) "
    PERFORMER "Ntrsn"
    INDEX 00 64:12:37
    INDEX 01 64:14:37
  TRACK 15 AUDIO
    TITLE "Electric Love (Parade Ground Remix)"
    PERFORMER "Ntrsn"
    INDEX 00 69:50:37
    INDEX 01 69:52:37
Код:
[url=https://fastpic.ru/view/32/2011/1218/612619da40a928afd3c96e2ecd37f203.jpg.html][img]http://i32.fastpic.ru/thumb/2011/1218/03/612619da40a928afd3c96e2ecd37f203.jpeg[/img][/url][url=https://fastpic.ru/view/29/2011/1218/9e359e3d952e41955c1164b4464d576a.jpg.html][img]http://i29.fastpic.ru/thumb/2011/1218/6a/9e359e3d952e41955c1164b4464d576a.jpeg[/img][/url][url=https://fastpic.ru/view/28/2011/1218/6d776c599fad0ceb3cb3d83bcba646fa.jpg.html][img]http://i28.fastpic.ru/thumb/2011/1218/fa/6d776c599fad0ceb3cb3d83bcba646fa.jpeg[/img][/url][url=https://fastpic.ru/view/32/2011/1218/7134d464bc81088ff174209ab674ea30.jpg.html][img]http://i32.fastpic.ru/thumb/2011/1218/30/7134d464bc81088ff174209ab674ea30.jpeg[/img][/url]
Правила, инструкции, FAQ!!!
Торрент  Добавлен [26 июн 2020, 16:48] Скачать торрент Магнет ссылка
Скачать торрент
[ Размер 20.39 КБ / Просмотров 4 ]

Статус
Проверен 
 
Размер  496 МБ
Приватный: Нет (DHT включён)
.torrent скачан  0
 


     Отправить личное сообщение
   
Страница 1 из 1
Показать сообщения за:  Поле сортировки  
Начать новую тему Ответить на тему


Сейчас этот форум просматривают: нет зарегистрированных пользователей и гости: 0


Вы не можете начинать темы
Вы не можете отвечать на сообщения
Вы не можете редактировать свои сообщения
Вы не можете удалять свои сообщения
Вы не можете добавлять вложения

Перейти:  
cron