Начать новую тему Ответить на тему
Статистика раздачи
Размер: 525.9 МБ | Добавлен: 26 июн 2020, 16:57 | Скачали: 0
Сидеров: 0  [0 байт/сек]    Личеров: 0  [0 байт/сек]
Пред. тема | След. тема 

Автор
Сообщение

СообщениеДобавлено: 26 июн 2020, 16:57 

Ответить с цитатой 

TrümmerWelten / Digitale Gewaltorgien
Жанр: EBM, Noise, Electro
Страна-производитель диска: Germany
Год издания диска: 2002
Издатель (лейбл): Fear Section
Номер по каталогу: Fear 004
Формат: CD, Album
Аудиокодек: FLAC (*.flac)
Тип рипа: image+.cue
Битрейт аудио: lossless
Продолжительность: 1:13:58.74
Источник (релизер): Физический носитель (Собственный рип с оригинального CD).
Наличие сканов в содержимом раздачи: да
Треклист:
01. Intro (Digitale Gewaltorgien) [1:58]
02. Soviel Schmerz [5:11]
03. Sick World [4:16]
04. Splitterfragmente 1 - Path Of Pain [0:54]
05. The Phoenix Dies [5:02]
06. Angstmotiv [5:26]
07. Mirror Of Pain [5:41]
08. Splitterfragmente 2 - Path Of Hate [1:19]
09. Dark Desire [5:19]
10. Keine Ewigkeit (Club Mix) [5:20]
11. Kill Me [5:42]
12. Splitterfragmente 3 - Path Of Sorrow [1:26]
13. All Love Must Die [5:06]
14. Looking For A Silent Place [4:25]
15. Outro (Zeit Heilt Wunden) [4:06]
Bonus:
16. The Phoenix Dies (BlutEngel-Remix) [5:27]
17. Gewalttouristen / Blitzopfer [3:06]
18. Gewalttouristen / Pferderipper [4:15]
Код:
Exact Audio Copy V1.0 beta 3 from 29. August 2011
EAC extraction logfile from 23. February 2012, 22:34
TrümmerWelten / Digitale Gewaltorgien
Used drive  : PLEXTOR BDDVDR PX-B320SA   Adapter: 0  ID: 2
Read mode               : Secure
Utilize accurate stream : Yes
Defeat audio cache      : Yes
Make use of C2 pointers : No
Read offset correction                      : 6
Overread into Lead-In and Lead-Out          : No
Fill up missing offset samples with silence : Yes
Delete leading and trailing silent blocks   : No
Null samples used in CRC calculations       : Yes
Used interface                              : Native Win32 interface for Win NT & 2000
Used output format              : User Defined Encoder
Selected bitrate                : 128 kBit/s
Quality                         : High
Add ID3 tag                     : No
Command line compressor         : C:\Program Files (x86)\FLAC\flac.exe
Additional command line options : -V -8 -T "Date=%year%" -T "Genre=%genre%" %source%
TOC of the extracted CD
     Track |   Start  |  Length  | Start sector | End sector
    ---------------------------------------------------------
        1  |  0:00.00 |  1:57.74 |         0    |     8848
        2  |  1:57.74 |  5:10.42 |      8849    |    32140
        3  |  7:08.41 |  4:16.01 |     32141    |    51341
        4  | 11:24.42 |  0:54.18 |     51342    |    55409
        5  | 12:18.60 |  5:02.20 |     55410    |    78079
        6  | 17:21.05 |  5:25.39 |     78080    |   102493
        7  | 22:46.44 |  5:41.34 |    102494    |   128102
        8  | 28:28.03 |  1:19.04 |    128103    |   134031
        9  | 29:47.07 |  5:18.71 |    134032    |   157952
       10  | 35:06.03 |  5:20.11 |    157953    |   181963
       11  | 40:26.14 |  5:41.47 |    181964    |   207585
       12  | 46:07.61 |  1:25.66 |    207586    |   214026
       13  | 47:33.52 |  5:06.32 |    214027    |   237008
       14  | 52:40.09 |  4:25.32 |    237009    |   256915
       15  | 57:05.41 |  4:05.61 |    256916    |   275351
       16  | 61:11.27 |  5:26.58 |    275352    |   299859
       17  | 66:38.10 |  3:05.58 |    299860    |   313792
       18  | 69:43.68 |  4:15.06 |    313793    |   332923
Range status and errors
Selected range
     Filename D:\TrummerWelten - Digitale Gewaltorgien (2002)\TrummerWelten - Digitale Gewaltorgien.wav
     Peak level 100.0 %
     Extraction speed 8.4 X
     Range quality 100.0 %
     Test CRC D5C7BEAC
     Copy CRC D5C7BEAC
     Copy OK
No errors occurred
AccurateRip summary
Track  1  accurately ripped (confidence 1)  [34EE247D]  (AR v1)
Track  2  accurately ripped (confidence 1)  [475211A3]  (AR v1)
Track  3  accurately ripped (confidence 1)  [33CA1434]  (AR v1)
Track  4  accurately ripped (confidence 1)  [A1DCC801]  (AR v1)
Track  5  accurately ripped (confidence 1)  [470088B9]  (AR v1)
Track  6  accurately ripped (confidence 1)  [C1EB9B1C]  (AR v1)
Track  7  accurately ripped (confidence 1)  [53A54B3A]  (AR v1)
Track  8  accurately ripped (confidence 1)  [0150C502]  (AR v1)
Track  9  accurately ripped (confidence 1)  [EB58DFD7]  (AR v1)
Track 10  accurately ripped (confidence 1)  [9DB87FFF]  (AR v1)
Track 11  accurately ripped (confidence 1)  [4F441D93]  (AR v1)
Track 12  accurately ripped (confidence 1)  [DE9890AF]  (AR v1)
Track 13  accurately ripped (confidence 1)  [62AB7A44]  (AR v1)
Track 14  accurately ripped (confidence 1)  [B25F68B6]  (AR v1)
Track 15  accurately ripped (confidence 1)  [6153B722]  (AR v1)
Track 16  accurately ripped (confidence 1)  [F542920A]  (AR v1)
Track 17  accurately ripped (confidence 1)  [D395FF69]  (AR v1)
Track 18  accurately ripped (confidence 1)  [BE693900]  (AR v1)
All tracks accurately ripped
End of status report
==== Log checksum 650103D8E02AECCA200E2A2EE308952CD6674F95CE17CB4814853CE89A05F76E ====
Правила, инструкции, FAQ!!!
Торрент  Добавлен [26 июн 2020, 16:57] Скачать торрент Магнет ссылка
Скачать торрент
[ Размер 11.36 КБ / Просмотров 5 ]

Статус
Проверен 
 
Размер  525.9 МБ
Приватный: Нет (DHT включён)
.torrent скачан  0
 


     Отправить личное сообщение
   
Страница 1 из 1
Показать сообщения за:  Поле сортировки  
Начать новую тему Ответить на тему


Сейчас этот форум просматривают: нет зарегистрированных пользователей и гости: 0


Вы не можете начинать темы
Вы не можете отвечать на сообщения
Вы не можете редактировать свои сообщения
Вы не можете удалять свои сообщения
Вы не можете добавлять вложения

Перейти:  
cron