Начать новую тему Ответить на тему
Статистика раздачи
Размер: 497.18 МБ | Добавлен: 26 июн 2020, 16:53 | Скачали: 0
Сидеров: 0  [0 байт/сек]    Личеров: 0  [0 байт/сек]
Пред. тема | След. тема 

Автор
Сообщение

СообщениеДобавлено: 26 июн 2020, 16:53 

Ответить с цитатой 

Network Access / File 01: Decompose
Жанр: EBM
Страна-производитель диска: Germany
Год издания диска: 1995
Издатель (лейбл): Cinemanyx
Номер по каталогу: CMX001 CD
Страна: Germany
Аудио кодек: FLAC (*.flac)
Тип рипа: image+.cue
Битрейт аудио: lossless
Продолжительность: 1:07:38.71
Источник (релизер): CD из личной коллекции.
Наличие сканов в содержимом раздачи: нет
Треклист:
01. Soldier Boys (Edit Of Violence) 6:36
02. Revenge 5:18
03. Desperate Hours 4:23
04. Shelter 5:09
05. Artificial Worlds 4:45
06. Sheep In The Abattoir (Re-slaughtered) 5:33
07. Trauma Lane 5:41
08. Angel In The Blood 5:33
09. (In-)Sanity 5:04
10. Drowning In Ashes 4:34
11. Shattered 4:15
12. How True Is It 5:10
13. Cloud Of Dust 5:05
Код:
Exact Audio Copy V0.99 prebeta 5 from 4. May 2009
Отчёт EAC об извлечении, выполненном 10. октября 2010, 17:01
Network Access / File 01:Decompose
Дисковод: TSSTcorpCDDVDW TS-L632H   Adapter: 0  ID: 0
Режим чтения                 : Достоверность
Использование точного потока : Да
Отключение кэша аудио        : Да
Использование указателей C2  : Нет
Коррекция смещения при чтении                     : 6
Способность читать области Lead-in и Lead-out     : Нет
Заполнение пропущенных сэмплов тишиной            : Да
Удаление блоков с тишиной в начале и конце        : Нет
При вычислениях CRC использовались нулевые сэмплы : Да
Интерфейс                                         : Встроенный Win32-интерфейс для Win NT/2000
Выходной формат          : Пользовательский кодировщик
Выбранный битрейт        : 1024 kBit/s
Качество                 : Высокий
Добавление ID3-тэга      : Нет
Утилита сжатия           : C:\Program Files\Exact Audio Copy\FLAC\FLAC.EXE
Дополнительные параметры : -6 -V -T "ARTIST=%a" -T "TITLE=%t" -T "ALBUM=%g" -T "DATE=%y" -T "TRACKNUMBER=%n" -T "GENRE=%m" -T "COMMENT=%e" %s -o %d
TOC извлечённого CD
     Трек |   Старт  | Длительность | Начальный сектор | Конечный сектор
    ---------------------------------------------------------------------
       1  |  0:01.00 |    6:40.54   |          75      |      30128
       2  |  6:41.54 |    5:18.13   |       30129      |      53991
       3  | 11:59.67 |    4:25.13   |       53992      |      73879
       4  | 16:25.05 |    5:13.30   |       73880      |      97384
       5  | 21:38.35 |    4:49.06   |       97385      |     119065
       6  | 26:27.41 |    5:36.11   |      119066      |     144276
       7  | 32:03.52 |    5:43.61   |      144277      |     170062
       8  | 37:47.38 |    5:33.59   |      170063      |     195096
       9  | 43:21.22 |    5:08.27   |      195097      |     218223
      10  | 48:29.49 |    4:35.52   |      218224      |     238900
      11  | 53:05.26 |    4:17.61   |      238901      |     258236
      12  | 57:23.12 |    5:12.14   |      258237      |     281650
      13  | 62:35.26 |    5:04.45   |      281651      |     304495
Характеристики диапазона извлечения и сообщения об ошибках
Выбранный диапазон
     Имя файла C:\Users\Алексей\Desktop\iPOD\Network Access - File 01 Decompose.wav
     Пиковый уровень 100.0 %
     Качество диапазона 100.0 %
     CRC теста 329C78DC
     CRC копии 329C78DC
     Копирование... OK
Ошибок не произошло
AccurateRip: сводка
Трек  1  нет в базе данных
Трек  2  нет в базе данных
Трек  3  нет в базе данных
Трек  4  нет в базе данных
Трек  5  нет в базе данных
Трек  6  нет в базе данных
Трек  7  нет в базе данных
Трек  8  нет в базе данных
Трек  9  нет в базе данных
Трек 10  нет в базе данных
Трек 11  нет в базе данных
Трек 12  нет в базе данных
Трек 13  нет в базе данных
Ни одного трека нет в базе AccurateRip
Конец отчёта
Код:
REM GENRE EBM
REM DATE 1995
REM DISCID BC0FDA0D
REM COMMENT "ExactAudioCopy v0.99pb5"
PERFORMER "Network Access"
TITLE "File 01:Decompose"
FILE "Network Access - File 01 Decompose.flac" WAVE
  TRACK 01 AUDIO
    TITLE "Soldier Boys (Edit Of Violence)"
    PERFORMER "Network Access"
    INDEX 00 00:00:00
    INDEX 01 00:01:00
  TRACK 02 AUDIO
    TITLE "Revenge"
    PERFORMER "Network Access"
    INDEX 00 06:39:09
    INDEX 01 06:41:54
  TRACK 03 AUDIO
    TITLE "Desperate Hours"
    PERFORMER "Network Access"
    INDEX 00 11:57:22
    INDEX 01 11:59:67
  TRACK 04 AUDIO
    TITLE "Shelter"
    PERFORMER "Network Access"
    INDEX 00 16:22:35
    INDEX 01 16:25:05
  TRACK 05 AUDIO
    TITLE "Artificial Worlds"
    PERFORMER "Network Access"
    INDEX 00 21:35:65
    INDEX 01 21:38:35
  TRACK 06 AUDIO
    TITLE "Sheep In The Abattoir (Re-Slaughtered)"
    PERFORMER "Network Access"
    INDEX 00 26:24:71
    INDEX 01 26:27:41
  TRACK 07 AUDIO
    TITLE "Trauma Lane"
    PERFORMER "Network Access"
    INDEX 00 32:01:07
    INDEX 01 32:03:52
  TRACK 08 AUDIO
    TITLE "Angel In Blood"
    PERFORMER "Network Access"
    INDEX 00 37:44:68
    INDEX 01 37:47:38
  TRACK 09 AUDIO
    TITLE "(In-)Sanity"
    PERFORMER "Network Access"
    INDEX 00 43:18:52
    INDEX 01 43:21:22
  TRACK 10 AUDIO
    TITLE "Drowing In Ashes"
    PERFORMER "Network Access"
    INDEX 00 48:27:04
    INDEX 01 48:29:49
  TRACK 11 AUDIO
    TITLE "Shattered"
    PERFORMER "Network Access"
    INDEX 00 53:02:56
    INDEX 01 53:05:26
  TRACK 12 AUDIO
    TITLE "How True Is It"
    PERFORMER "Network Access"
    INDEX 00 57:20:42
    INDEX 01 57:23:12
  TRACK 13 AUDIO
    TITLE "Cloud Of Dust"
    PERFORMER "Network Access"
    INDEX 00 62:32:56
    INDEX 01 62:35:26
Код:
[url=https://fastpic.ru/view/5/2010/1026/a2232490070c573cf299be4ab7c3d29a.jpg.html][img]http://i5.fastpic.ru/thumb/2010/1026/9a/a2232490070c573cf299be4ab7c3d29a.jpeg[/img][/url]
Правила, инструкции, FAQ!!!
Торрент  Добавлен [26 июн 2020, 16:53] Скачать торрент Магнет ссылка
Скачать торрент
[ Размер 20.25 КБ / Просмотров 12 ]

Статус
Проверен 
 
Размер  497.18 МБ
Приватный: Нет (DHT включён)
.torrent скачан  0
 


     Отправить личное сообщение
   
Страница 1 из 1
Показать сообщения за:  Поле сортировки  
Начать новую тему Ответить на тему


Сейчас этот форум просматривают: нет зарегистрированных пользователей и гости: 0


Вы не можете начинать темы
Вы не можете отвечать на сообщения
Вы не можете редактировать свои сообщения
Вы не можете удалять свои сообщения
Вы не можете добавлять вложения

Перейти:  
cron