Начать новую тему Ответить на тему
Статистика раздачи
Размер: 412.76 МБ | Добавлен: 26 июн 2020, 20:42 | Скачали: 0
Сидеров: 0  [0 байт/сек]    Личеров: 0  [0 байт/сек]
Пред. тема | След. тема 

Автор
Сообщение

СообщениеДобавлено: 26 июн 2020, 20:42 

Ответить с цитатой 

Nebula-H - H
Жанр: EBM
Год выпуска диска: 2002
Производитель диска: Belgium
Аудио кодек: FLAC
Тип рипа: image+.cue
Битрейт аудио: lossless
Трэклист:
1 H 5:28
2 White Light 4:38
3 Sign From Above 4:59
4 Symbolism H.02 4:44
5 Twilight Zone 4:04
6 L.onely S.olitude 5:11
7 Renaissance (Posthume) 4:34
8 1927 (L’Invention De La VI) 4:22
9 System Of Love 4:41
10 JH. Bosch 5:15
Exact Audio Copy V0.99 prebeta 5 from 4. May 2009
EAC extraction logfile from 4. July 2010, 23:52
Nebula-H / H
Used drive : PIONEER DVD-RW DVR-216D Adapter: 2 ID: 1
Read mode : Secure
Utilize accurate stream : Yes
Defeat audio cache : Yes
Make use of C2 pointers : No
Read offset correction : 96
Overread into Lead-In and Lead-Out : No
Fill up missing offset samples with silence : Yes
Delete leading and trailing silent blocks : No
Null samples used in CRC calculations : Yes
Used interface : Native Win32 interface for Win NT & 2000
Used output format : Internal WAV Routines
Sample format : 44.100 Hz; 16 Bit; Stereo
TOC of the extracted CD
Track | Start | Length | Start sector | End sector
---------------------------------------------------------
1 | 0:00.00 | 5:30.66 | 0 | 24815
2 | 5:30.66 | 4:40.70 | 24816 | 45885
3 | 10:11.61 | 5:01.73 | 45886 | 68533
4 | 15:13.59 | 4:46.35 | 68534 | 90018
5 | 20:00.19 | 4:05.74 | 90019 | 108467
6 | 24:06.18 | 5:13.13 | 108468 | 131955
7 | 29:19.31 | 4:36.21 | 131956 | 152676
8 | 33:55.52 | 4:24.37 | 152677 | 172513
9 | 38:20.14 | 4:43.18 | 172514 | 193756
10 | 43:03.32 | 5:15.32 | 193757 | 217413
11 | 50:50.64 | 5:16.14 | 228814 | 252527
Range status and errors
Selected range
Filename K:\Nebula-H - H.wav
Peak level 100.0 %
Range quality 100.0 %
Test CRC BA527272
Copy CRC BA527272
Copy OK
No errors occurred
AccurateRip summary
Track 1 accurately ripped (confidence 2) [AEAEFFCB]
Track 2 accurately ripped (confidence 2) [420C4E8B]
Track 3 accurately ripped (confidence 2) [F0A26C3F]
Track 4 accurately ripped (confidence 2) [AD19D260]
Track 5 accurately ripped (confidence 2) [333CEC46]
Track 6 accurately ripped (confidence 2) [900EAD0C]
Track 7 accurately ripped (confidence 2) [94A8B091]
Track 8 accurately ripped (confidence 2) [89F6136A]
Track 9 accurately ripped (confidence 2) [BF5B63D8]
Track 10 accurately ripped (confidence 2) [20EBCAEE]
All tracks accurately ripped
End of status report
HQ COVERS !!!!
Доп. информация: Label:
Alfa Matrix
Catalog#:
AM-1011CD
Format:
CD
Nebula-H –это удивительная помесь силовой электроники и транса. Уже дебютный альбом команды продемонстрировал достаточно большой потенциал и оригинальные подходы в сочинении танцевальной музыки. Неудивительно, что диск "H" был на сцене тепло встречен как критиками, так и простыми слушателями.
Во время выступления группы слушатели чувствуют себя так, как будто им вкололи лошадиную дозу клубного тестостерона - такие реактивные скорости и мощный напор требуют полной отдачи.
Правила, инструкции, FAQ!!!
Торрент  Добавлен [26 июн 2020, 20:42] Скачать торрент Магнет ссылка
Скачать торрент
[ Размер 17.03 КБ / Просмотров 8 ]

Статус
Проверен 
 
Размер  412.76 МБ
Приватный: Нет (DHT включён)
.torrent скачан  0
 


     Отправить личное сообщение
   
Страница 1 из 1
Показать сообщения за:  Поле сортировки  
Начать новую тему Ответить на тему


Сейчас этот форум просматривают: нет зарегистрированных пользователей и гости: 0


Вы не можете начинать темы
Вы не можете отвечать на сообщения
Вы не можете редактировать свои сообщения
Вы не можете удалять свои сообщения
Вы не можете добавлять вложения

Перейти:  
cron