Начать новую тему Ответить на тему
Статистика раздачи
Размер: 373.39 МБ | Добавлен: 26 июн 2020, 16:54 | Скачали: 0
Сидеров: 0  [0 байт/сек]    Личеров: 0  [0 байт/сек]
Пред. тема | След. тема 

Автор
Сообщение

СообщениеДобавлено: 26 июн 2020, 16:54 

Ответить с цитатой 

Morgue - The Mind Is A Labyrinth (CD)
Жанр: EBM
Год выпуска диска: 1994
Производитель диска: Германия
Аудио кодек: FLAC
Тип рипа: tracks+.cue
Битрейт аудио: lossless
Продолжительность: 00:57:03
Трэклист:
01. nuclear weapon test (4:01)
02. coma (3:43)
03. coup d'etat (2:45)
04. forever (4:47)
05. suffering (1:37)
06. promising future (5:22)
07. scatology (6:09)
08. effects of experience (4:25)
09. acute grief (4:49)
10. the progress (4:48)
11. death clouds (6:05)
12. way out (4:05)
13. The mind is a lbyrinth (4:30)
Exact Audio Copy V0.99 prebeta 4 from 23. January 2008
EAC extraction logfile from 10. September 2008, 19:34
Morgue / The Mind is a Labyrinth
Used drive : TSSTcorpDVD+-RW TS-H653B Adapter: 1 ID: 0
Read mode : Secure
Utilize accurate stream : Yes
Defeat audio cache : Yes
Make use of C2 pointers : No
Read offset correction : 6
Overread into Lead-In and Lead-Out : No
Fill up missing offset samples with silence : Yes
Delete leading and trailing silent blocks : No
Null samples used in CRC calculations : Yes
Used interface : Installed external ASPI interface
Gap handling : Appended to previous track
Used output format : User Defined Encoder
Selected bitrate : 192 kBit/s
Quality : High
Add ID3 tag : No
Command line compressor : C:\Program Files\Exact Audio Copy\Flac\flac.exe
Additional command line options : -V -8 -T "artist=%a" -T "title=%t" -T "album=%g" -T "date=%y" -T "tracknumber=%n" -T "genre=%m" %s
TOC of the extracted CD
Track | Start | Length | Start sector | End sector
---------------------------------------------------------
1 | 0:00.00 | 4:00.67 | 0 | 18066
2 | 4:00.67 | 3:43.35 | 18067 | 34826
3 | 7:44.27 | 2:45.25 | 34827 | 47226
4 | 10:29.52 | 4:46.63 | 47227 | 68739
5 | 15:16.40 | 1:36.60 | 68740 | 75999
6 | 16:53.25 | 5:22.10 | 76000 | 100159
7 | 22:15.35 | 6:08.70 | 100160 | 127829
8 | 28:24.30 | 4:24.55 | 127830 | 147684
9 | 32:49.10 | 4:49.27 | 147685 | 169386
10 | 37:38.37 | 4:47.48 | 169387 | 190959
11 | 42:26.10 | 6:05.12 | 190960 | 218346
12 | 48:31.22 | 4:05.25 | 218347 | 236746
13 | 52:36.47 | 4:30.28 | 236747 | 257024
Track 1
Filename C:\A\Morgue - The Mind is a Labyrinth [flac]\01 - nuclear weapon test.wav
Pre-gap length 0:00:02.00
Peak level 99.2 %
Track quality 100.0 %
Test CRC 03452987
Copy CRC 03452987
Track not present in AccurateRip database
Copy OK
Track 2
Filename C:\A\Morgue - The Mind is a Labyrinth [flac]\02 - coma.wav
Pre-gap length 0:00:01.88
Peak level 96.9 %
Track quality 99.9 %
Test CRC CF521187
Copy CRC CF521187
Track not present in AccurateRip database
Copy OK
Track 3
Filename C:\A\Morgue - The Mind is a Labyrinth [flac]\03 - coup d'etat.wav
Pre-gap length 0:00:01.93
Peak level 95.0 %
Track quality 100.0 %
Test CRC AB80CE93
Copy CRC AB80CE93
Track not present in AccurateRip database
Copy OK
Track 4
Filename C:\A\Morgue - The Mind is a Labyrinth [flac]\04 - forever.wav
Pre-gap length 0:00:02.22
Peak level 98.0 %
Track quality 100.0 %
Test CRC B2A75053
Copy CRC B2A75053
Track not present in AccurateRip database
Copy OK
Track 5
Filename C:\A\Morgue - The Mind is a Labyrinth [flac]\05 - suffering.wav
Pre-gap length 0:00:02.10
Peak level 99.2 %
Track quality 100.0 %
Test CRC 84125F20
Copy CRC 84125F20
Track not present in AccurateRip database
Copy OK
Track 6
Filename C:\A\Morgue - The Mind is a Labyrinth [flac]\06 - promising future.wav
Peak level 98.4 %
Track quality 100.0 %
Test CRC 6375EF95
Copy CRC 6375EF95
Track not present in AccurateRip database
Copy OK
Track 7
Filename C:\A\Morgue - The Mind is a Labyrinth [flac]\07 - scatology.wav
Pre-gap length 0:00:02.17
Peak level 97.4 %
Track quality 99.9 %
Test CRC FF91EC52
Copy CRC FF91EC52
Track not present in AccurateRip database
Copy OK
Track 8
Filename C:\A\Morgue - The Mind is a Labyrinth [flac]\08 - effects of experience.wav
Pre-gap length 0:00:02.73
Peak level 99.2 %
Track quality 100.0 %
Test CRC EF2FCDE8
Copy CRC EF2FCDE8
Track not present in AccurateRip database
Copy OK
Track 9
Filename C:\A\Morgue - The Mind is a Labyrinth [flac]\09 - acute grief.wav
Pre-gap length 0:00:02.20
Peak level 99.2 %
Track quality 100.0 %
Test CRC 49B867CA
Copy CRC 49B867CA
Track not present in AccurateRip database
Copy OK
Track 10
Filename C:\A\Morgue - The Mind is a Labyrinth [flac]\10 - the progress.wav
Pre-gap length 0:00:02.40
Peak level 91.5 %
Track quality 100.0 %
Test CRC DCDC2912
Copy CRC DCDC2912
Track not present in AccurateRip database
Copy OK
Track 11
Filename C:\A\Morgue - The Mind is a Labyrinth [flac]\11 - death clouds.wav
Pre-gap length 0:00:02.40
Peak level 99.2 %
Track quality 100.0 %
Test CRC C9E1113A
Copy CRC C9E1113A
Track not present in AccurateRip database
Copy OK
Track 12
Filename C:\A\Morgue - The Mind is a Labyrinth [flac]\12 - way out.wav
Pre-gap length 0:00:01.80
Peak level 99.2 %
Track quality 100.0 %
Test CRC CC798DCD
Copy CRC CC798DCD
Track not present in AccurateRip database
Copy OK
Track 13
Filename C:\A\Morgue - The Mind is a Labyrinth [flac]\13 - The mind is a lbyrinth.wav
Pre-gap length 0:00:02.20
Peak level 99.2 %
Track quality 100.0 %
Test CRC 32B7A01F
Copy CRC 32B7A01F
Track not present in AccurateRip database
Copy OK
None of the tracks are present in the AccurateRip database
No errors occurred
End of status report
REM GENRE Industrial
REM DATE 1994
REM DISCID A80D630D
REM COMMENT "ExactAudioCopy v0.99pb4"
PERFORMER "Morgue"
TITLE "The Mind is a Labyrinth"
FILE "01 - nuclear weapon test.wav" WAVE
TRACK 01 AUDIO
TITLE "nuclear weapon test"
PERFORMER "Morgue"
INDEX 01 00:00:00
TRACK 02 AUDIO
TITLE "coma"
PERFORMER "Morgue"
INDEX 00 03:59:01
FILE "02 - coma.wav" WAVE
INDEX 01 00:00:00
TRACK 03 AUDIO
TITLE "coup d'etat"
PERFORMER "Morgue"
INDEX 00 03:41:40
FILE "03 - coup d'etat.wav" WAVE
INDEX 01 00:00:00
TRACK 04 AUDIO
TITLE "forever"
PERFORMER "Morgue"
INDEX 00 02:43:08
FILE "04 - forever.wav" WAVE
INDEX 01 00:00:00
TRACK 05 AUDIO
TITLE "suffering"
PERFORMER "Morgue"
INDEX 00 04:44:55
FILE "05 - suffering.wav" WAVE
INDEX 01 00:00:00
FILE "06 - promising future.wav" WAVE
TRACK 06 AUDIO
TITLE "promising future"
PERFORMER "Morgue"
INDEX 01 00:00:00
TRACK 07 AUDIO
TITLE "scatology"
PERFORMER "Morgue"
INDEX 00 05:19:72
FILE "07 - scatology.wav" WAVE
INDEX 01 00:00:00
TRACK 08 AUDIO
TITLE "effects of experience"
PERFORMER "Morgue"
INDEX 00 06:06:15
FILE "08 - effects of experience.wav" WAVE
INDEX 01 00:00:00
TRACK 09 AUDIO
TITLE "acute grief"
PERFORMER "Morgue"
INDEX 00 04:22:40
FILE "09 - acute grief.wav" WAVE
INDEX 01 00:00:00
TRACK 10 AUDIO
TITLE "the progress"
PERFORMER "Morgue"
INDEX 00 04:46:72
FILE "10 - the progress.wav" WAVE
INDEX 01 00:00:00
TRACK 11 AUDIO
TITLE "death clouds"
PERFORMER "Morgue"
INDEX 00 04:45:18
FILE "11 - death clouds.wav" WAVE
INDEX 01 00:00:00
TRACK 12 AUDIO
TITLE "way out"
PERFORMER "Morgue"
INDEX 00 06:03:27
FILE "12 - way out.wav" WAVE
INDEX 01 00:00:00
TRACK 13 AUDIO
TITLE "The mind is a lbyrinth"
PERFORMER "Morgue"
INDEX 00 04:03:10
FILE "13 - The mind is a lbyrinth.wav" WAVE
INDEX 01 00:00:00

Правила, инструкции, FAQ!!!
Торрент  Добавлен [26 июн 2020, 16:54] Скачать торрент Магнет ссылка
Скачать торрент
[ Размер 15.91 КБ / Просмотров 5 ]

Статус
Проверен 
 
Размер  373.39 МБ
Приватный: Нет (DHT включён)
.torrent скачан  0
 


     Отправить личное сообщение
   
Страница 1 из 1
Показать сообщения за:  Поле сортировки  
Начать новую тему Ответить на тему


Сейчас этот форум просматривают: нет зарегистрированных пользователей и гости: 1


Вы не можете начинать темы
Вы не можете отвечать на сообщения
Вы не можете редактировать свои сообщения
Вы не можете удалять свои сообщения
Вы не можете добавлять вложения

Перейти:  
cron