Начать новую тему Ответить на тему
Статистика раздачи
Размер: 447.53 МБ | Добавлен: 26 июн 2020, 21:07 | Скачали: 0
Сидеров: 0  [0 байт/сек]    Личеров: 0  [0 байт/сек]
Пред. тема | След. тема 

Автор
Сообщение

СообщениеДобавлено: 26 июн 2020, 21:07 

Ответить с цитатой 

Modern Cubism / ... Tout Le Firmament Autour
Жанр: EBM
Страна-производитель диска: Germany
Год издания: 2012
Издатель (лейбл): Emmo.biz
Номер по каталогу: EZR 001
Страна: Belgian
Аудиокодек: FLAC (*.flac)
Тип рипа: image+.cue
Битрейт аудио: lossless
Продолжительность: 1:02:16
Источник (релизер): Audio CD
Наличие сканов в содержимом раздачи: нет
Треклист:
01. En Foret
02. Les Statues
03. D'enfance
04. Le Petit Non
05. Couronnes / Le Trone
06. La Corde
07. Rapes
08. La Fille De Fabrique
09. Les Quatre Verites
10. Ennemis
11. En Prison
12. Marche Des Paysans
13. La Grande Brosse
14. Force De Frappe / La Foule / De Vivre
Код:
Exact Audio Copy V1.0 beta 3 from 29. August 2011
Отчёт EAC об извлечении, выполненном 14. июля 2012, 21:26
Modern Cubism / ... Tout Le Firmament Autour
Дисковод: _NEC    DVD_RW ND-4570A   Adapter: 1  ID: 0
Режим чтения                 : Достоверность
Использование точного потока : Да
Отключение кэша аудио        : Да
Использование указателей C2  : Нет
Коррекция смещения при чтении                     : 48
Способность читать области Lead-in и Lead-out     : Нет
Заполнение пропущенных сэмплов тишиной            : Да
Удаление блоков с тишиной в начале и конце        : Нет
При вычислениях CRC использовались нулевые сэмплы : Да
Интерфейс                                         : Встроенный Win32-интерфейс для Win NT/2000
Выходной формат : Внутренние WAV-операции
Формат сэмплов  : 44.100 Гц; 16 бит; стерео
TOC извлечённого CD
     Трек |   Старт  | Длительность | Начальный сектор | Конечный сектор
    ---------------------------------------------------------------------
       1  |  0:00.00 |    5:30.74   |           0      |      24823
       2  |  5:30.74 |    4:40.25   |       24824      |      45848
       3  | 10:11.24 |    4:26.59   |       45849      |      65857
       4  | 14:38.08 |    5:12.01   |       65858      |      89258
       5  | 19:50.09 |    5:58.10   |       89259      |     116118
       6  | 25:48.19 |    4:08.51   |      116119      |     134769
       7  | 29:56.70 |    3:56.62   |      134770      |     152531
       8  | 33:53.57 |    3:31.67   |      152532      |     168423
       9  | 37:25.49 |    4:26.48   |      168424      |     188421
      10  | 41:52.22 |    3:44.45   |      188422      |     205266
      11  | 45:36.67 |    3:22.38   |      205267      |     220454
      12  | 48:59.30 |    3:55.19   |      220455      |     238098
      13  | 52:54.49 |    4:42.67   |      238099      |     259315
      14  | 57:37.41 |    4:38.13   |      259316      |     280178
Характеристики диапазона извлечения и сообщения об ошибках
Выбранный диапазон
     Имя файла H:\!!!\modern cubism\Modern Cubism - ... Tout Le Firmament Autour.wav
     Пиковый уровень 98.9 %
     Скорость извлечения 4.9 X
     Качество диапазона 100.0 %
     CRC теста A6E7B03B
     CRC копии A6E7B03B
     Копирование... OK
Ошибок не произошло
AccurateRip: сводка
Трек  1  отсутствует в базе данных
Трек  2  отсутствует в базе данных
Трек  3  отсутствует в базе данных
Трек  4  отсутствует в базе данных
Трек  5  отсутствует в базе данных
Трек  6  отсутствует в базе данных
Трек  7  отсутствует в базе данных
Трек  8  отсутствует в базе данных
Трек  9  отсутствует в базе данных
Трек 10  отсутствует в базе данных
Трек 11  отсутствует в базе данных
Трек 12  отсутствует в базе данных
Трек 13  отсутствует в базе данных
Трек 14  отсутствует в базе данных
Ни одного трека нет в базе AccurateRip
Конец отчёта
------------------------------------------------------------
Код:
REM DISCID C40E970E
REM COMMENT "ExactAudioCopy v1.0b3"
PERFORMER "Modern Cubism"
TITLE "... Tout Le Firmament Autour"
FILE "Modern Cubism - ... Tout Le Firmament Autour.wav" WAVE
  TRACK 01 AUDIO
    TITLE "En Foret"
    PERFORMER "Modern Cubism"
    INDEX 01 00:00:00
  TRACK 02 AUDIO
    TITLE "Mes Statues"
    PERFORMER "Modern Cubism"
    INDEX 00 05:29:00
    INDEX 01 05:30:74
  TRACK 03 AUDIO
    TITLE "D'enfance"
    PERFORMER "Modern Cubism"
    INDEX 00 10:09:25
    INDEX 01 10:11:24
  TRACK 04 AUDIO
    TITLE "Le Petit Non"
    PERFORMER "Modern Cubism"
    INDEX 00 14:36:09
    INDEX 01 14:38:08
  TRACK 05 AUDIO
    TITLE "Couronnes / Le Trone"
    PERFORMER "Modern Cubism"
    INDEX 00 19:48:10
    INDEX 01 19:50:09
  TRACK 06 AUDIO
    TITLE "La Corde"
    PERFORMER "Modern Cubism"
    INDEX 00 25:46:20
    INDEX 01 25:48:19
  TRACK 07 AUDIO
    TITLE "Rapes"
    PERFORMER "Modern Cubism"
    INDEX 00 29:54:71
    INDEX 01 29:56:70
  TRACK 08 AUDIO
    TITLE "La Fille De Fabrique"
    PERFORMER "Modern Cubism"
    INDEX 00 33:51:58
    INDEX 01 33:53:57
  TRACK 09 AUDIO
    TITLE "Les Quatre Verites"
    PERFORMER "Modern Cubism"
    INDEX 00 37:23:50
    INDEX 01 37:25:49
  TRACK 10 AUDIO
    TITLE "Ennemis"
    PERFORMER "Modern Cubism"
    INDEX 00 41:50:23
    INDEX 01 41:52:22
  TRACK 11 AUDIO
    TITLE "En Prison"
    PERFORMER "Modern Cubism"
    INDEX 00 45:34:68
    INDEX 01 45:36:67
  TRACK 12 AUDIO
    TITLE "Marche Des Paysans"
    PERFORMER "Modern Cubism"
    INDEX 00 48:57:31
    INDEX 01 48:59:30
  TRACK 13 AUDIO
    TITLE "La Grande Brosse"
    PERFORMER "Modern Cubism"
    INDEX 00 52:52:50
    INDEX 01 52:54:49
  TRACK 14 AUDIO
    TITLE "Force De Frappe / La Foule / De Vivre"
    PERFORMER "Modern Cubism"
    INDEX 00 57:35:42
    INDEX 01 57:37:41
Код:
-----------------------
DON'T MODIFY THIS FILE
-----------------------
PERFORMER: auCDtect Task Manager, ver. 1.5.1RC3 build 1.5.1.4
Copyright (c) 2008-2010 y-soft. All rights reserved
[url=http://y-soft.org]http://y-soft.org[/url]
ANALYZER: auCDtect: CD records authenticity detector, version 0.8.2
Copyright (c) 2004 Oleg Berngardt. All rights reserved.
Copyright (c) 2004 Alexander Djourik. All rights reserved.
FILE: Modern Cubism - ... Tout Le Firmament Autour.flac
  Size: 469233850 Hash: D815323BFD86A6D585497C1578D3B0EF Accuracy: -m0
  Conclusion: CDDA 100%
  Signature: 6570C8A45CC766461C986F422D56BFDAC8BEDC00
Modern Cubism, проект с участием Jean-Luc de Meyer (Front 242 / 32CRASH / Cobalt 60 / Cyber-Tec).
Правила, инструкции, FAQ!!!
Торрент  Добавлен [26 июн 2020, 21:07] Скачать торрент Магнет ссылка
Скачать торрент
[ Размер 18.22 КБ / Просмотров 7 ]

Статус
Проверен 
 
Размер  447.53 МБ
Приватный: Нет (DHT включён)
.torrent скачан  0
 


     Отправить личное сообщение
   
Страница 1 из 1
Показать сообщения за:  Поле сортировки  
Начать новую тему Ответить на тему


Сейчас этот форум просматривают: нет зарегистрированных пользователей и гости: 0


Вы не можете начинать темы
Вы не можете отвечать на сообщения
Вы не можете редактировать свои сообщения
Вы не можете удалять свои сообщения
Вы не можете добавлять вложения

Перейти:  
cron