Начать новую тему Ответить на тему
Статистика раздачи
Размер: 296.76 МБ | Добавлен: 26 июн 2020, 17:13 | Скачали: 0
Сидеров: 0  [0 байт/сек]    Личеров: 0  [0 байт/сек]
Пред. тема | След. тема 

Автор
Сообщение

СообщениеДобавлено: 26 июн 2020, 17:13 

Ответить с цитатой 

Militant Cheerleaders On The Move - Strike One
Жанр: EBM
Год выпуска диска: 2006
Производитель диска: Sweden
Аудио кодек: APE
Тип рипа: image+.cue
Битрейт аудио: lossless
Продолжительность: 00:46:53
Трэклист:
01.Neuropa 3:35
02.Absolute 3:37
03.Big Gun 3:56
04.I Want More Life, Fucker 2:51
05.First Base 1:03
06.Mask 3:07
07.Metropolis 6:34
08.Black Flag 3:04
09.Second Base 2:18
10.War 4:41
11.Compop 3:28
12.Third Base 2:38
13.Lover 5:55
Код:
Exact Audio Copy V0.99 prebeta 5 from 4. May 2009
Отчёт EAC об извлечении, выполненном 10. октября 2009, 22:28
Militant Cheerleaders On The Move / Strike One
Дисковод: Optiarc DVD RW AD-7201S   Adapter: 1  ID: 1
Режим чтения                 : Достоверность
Использование точного потока : Да
Отключение кэша аудио        : Да
Использование указателей C2  : Нет
Коррекция смещения при чтении                     : 48
Способность читать области Lead-in и Lead-out     : Нет
Заполнение пропущенных сэмплов тишиной            : Да
Удаление блоков с тишиной в начале и конце        : Нет
При вычислениях CRC использовались нулевые сэмплы : Да
Интерфейс                                         : Встроенный
Win32-интерфейс для Win NT/2000
Выходной формат : Внутренние WAV-операции
Формат сэмплов  : 44.100 Гц; 16 бит; стерео
TOC извлечённого CD
     Трек |   Старт  | Длительность | Начальный сектор | Конечный сектор
    ---------------------------------------------------------------------
       1  |  0:00.00 |    3:35.64   |           0      |      16188
       2  |  3:35.64 |    3:37.06   |       16189      |      32469
       3  |  7:12.70 |    3:56.33   |       32470      |      50202
       4  | 11:09.28 |    2:51.68   |       50203      |      63095
       5  | 14:01.21 |    1:03.59   |       63096      |      67879
       6  | 15:05.05 |    3:07.21   |       67880      |      81925
       7  | 18:12.26 |    6:34.21   |       81926      |     111496
       8  | 24:46.47 |    3:04.47   |      111497      |     125343
       9  | 27:51.19 |    2:18.07   |      125344      |     135700
      10  | 30:09.26 |    4:41.26   |      135701      |     156801
      11  | 34:50.52 |    3:28.12   |      156802      |     172413
      12  | 38:18.64 |    2:38.26   |      172414      |     184289
      13  | 40:57.15 |    5:55.29   |      184290      |     210943
Характеристики диапазона извлечения и сообщения об ошибках
Выбранный диапазон
     Имя файла D:\Documents and Settings\Rodexx\Рабочий стол\Militant
Cheerleaders On The Move - Strike One\Militant Cheerleaders On The Move -
Strike One.wav
     Пиковый уровень 98.8 %
     Качество диапазона 99.9 %
     CRC теста 6E3A8F18
     CRC копии 6E3A8F18
     Копирование... OK
Ошибок не произошло
AccurateRip: сводка
Трек  1  нет в базе данных
Трек  2  нет в базе данных
Трек  3  нет в базе данных
Трек  4  нет в базе данных
Трек  5  нет в базе данных
Трек  6  нет в базе данных
Трек  7  нет в базе данных
Трек  8  нет в базе данных
Трек  9  нет в базе данных
Трек 10  нет в базе данных
Трек 11  нет в базе данных
Трек 12  нет в базе данных
Трек 13  нет в базе данных
Ни одного трека нет в базе AccurateRip
Конец отчёта
Код:
Started at: суббота, 10. 10. 2009. - 22:41.56
1 file found
1 -===- D:\Documents and Settings\Rodexx\Рабочий стол\Militant Cheerleaders On The Move - Strike One\Militant Cheerleaders On The Move - Strike One.ape
  Extracted successfully
  Conclusion: this track is CDDA with probability 99%
  Tempfile successfully deleted.
Finished at: суббота, 10. 10. 2009. - 22:47.06 (operation time: 0:05.10)
Label:
Prototyp
Catalog#:TYPCD 27
Format:CD
Country:Sweden
Released:2006
Genre:Electronic
Style:EBM

Дебютанты Militant Cheerleaders on the move из Швеции, выпустив на также шведском лэйбле Memento Materia свой дебютный альбом, под простым и ненавязчивым названием Strike One. Сотворили довольно разнообразный и концептуальный альбом, в классическом стиле ЕВМ присущем таким ветеранам как Nitzer Ebb или Orange Sector, и в то же время оставили в жанре некую свою нотку, что естественно не может не радовать.
Правила, инструкции, FAQ!!!
Торрент  Добавлен [26 июн 2020, 17:13] Скачать торрент Магнет ссылка
Скачать торрент
[ Размер 12.42 КБ / Просмотров 2 ]

Статус
Проверен 
 
Размер  296.76 МБ
Приватный: Нет (DHT включён)
.torrent скачан  0
 


     Отправить личное сообщение
   
Страница 1 из 1
Показать сообщения за:  Поле сортировки  
Начать новую тему Ответить на тему


Сейчас этот форум просматривают: нет зарегистрированных пользователей и гости: 0


Вы не можете начинать темы
Вы не можете отвечать на сообщения
Вы не можете редактировать свои сообщения
Вы не можете удалять свои сообщения
Вы не можете добавлять вложения

Перейти:  
cron