Начать новую тему Ответить на тему
Статистика раздачи
Размер: 549.47 МБ | Добавлен: 26 июн 2020, 20:22 | Скачали: 0
Сидеров: 0  [0 байт/сек]    Личеров: 0  [0 байт/сек]
Пред. тема | След. тема 

Автор
Сообщение

СообщениеДобавлено: 26 июн 2020, 20:22 

Ответить с цитатой 

MENTALLO & THE FIXER - Where Angels Fear To Tread
Жанр: EBM
Год выпуска диска: 1995
Производитель диска: USA
Страна: USA
Аудио кодек: FLAC
Тип рипа: image+.cue
Битрейт аудио: lossless
Продолжительность: 76:17
Трэклист:
01 - Mentallo & The Fixer - Gargantua
02 - Mentallo & The Fixer - Decomposed ( Trampled )
03 - Mentallo & The Fixer - Sacrilege
04 - Mentallo & The Fixer - Bring To A Boil
05 - Mentallo & The Fixer - Virtually Hopeless
06 - Mentallo & The Fixer - Coward ( Submerged )
07 - Mentallo & The Fixer - Ruthless
08 - Mentallo & The Fixer - Afterglow
09 - Mentallo & The Fixer - Battered States Of Euphoria
10 - Mentallo & The Fixer - Abominations Unleashed
11 - Mentallo & The Fixer - Dead Days
12 - Mentallo & The Fixer - Atom Smasher
13 - Mentallo & The Fixer - Power Struggle
14 - Mentallo & The Fixer - Sacrilege ( Grimpen Ward )
Доп. информация:
Artwork By - Hype Graphics
Programmed By, Written-By - Fixer ( 2 ) , Mentallo
Exact Audio Copy V0.99 prebeta 4 from 23. January 2008
EAC extraction logfile from 4. May 2009, 15:26
Mentallo & The Fixer / Where Angels Fear To Tread
Used drive : PIONEER DVD-RW DVR-215D Adapter: 2 ID: 0
Read mode : Secure
Utilize accurate stream : Yes
Defeat audio cache : Yes
Make use of C2 pointers : No
Read offset correction : 48
Overread into Lead-In and Lead-Out : No
Fill up missing offset samples with silence : Yes
Delete leading and trailing silent blocks : No
Null samples used in CRC calculations : Yes
Used interface : Installed external ASPI interface
Used output format : User Defined Encoder
Selected bitrate : 1024 kBit/s
Quality : High
Add ID3 tag : No
Command line compressor : C:\Program Files\Exact Audio Copy\Flac\flac.exe
Additional command line options : -8 -V -T "ARTIST=%a" -T "TITLE=%t" -T "ALBUM=%g" -T "DATE=%y" -T "TRACKNUMBER=%n" -T "GENRE=%m" -T "COMMENT=EAC FLAC -8" %s
TOC of the extracted CD
Track | Start | Length | Start sector | End sector
---------------------------------------------------------
1 | 0:00.00 | 2:33.00 | 0 | 11474
2 | 2:33.00 | 6:33.00 | 11475 | 40949
3 | 9:06.00 | 4:10.00 | 40950 | 59699
4 | 13:16.00 | 9:30.00 | 59700 | 102449
5 | 22:46.00 | 4:46.00 | 102450 | 123899
6 | 27:32.00 | 6:18.50 | 123900 | 152299
7 | 33:50.50 | 5:41.25 | 152300 | 177899
8 | 39:32.00 | 6:29.00 | 177900 | 207074
9 | 46:01.00 | 6:00.00 | 207075 | 234074
10 | 52:01.00 | 4:48.00 | 234075 | 255674
11 | 56:49.00 | 4:31.00 | 255675 | 275999
12 | 61:20.00 | 6:20.00 | 276000 | 304499
13 | 67:40.00 | 2:51.00 | 304500 | 317324
14 | 70:31.00 | 5:45.45 | 317325 | 343244
Range status and errors
Selected range
Filename D:\Download\Mentallo & The Fixer - Where Angels Fear To Tread 1995\Mentallo & The Fixer - Where Angels Fear To Tread.wav
Peak level 100.0 %
Range quality 100.0 %
Test CRC 2EF1B552
Copy CRC 2EF1B552
Copy OK
No errors occurred
AccurateRip summary
Track 1 cannot be verified as accurate (confidence 15) [1FAF0422], AccurateRip returned [D23F4B90]
Track 2 cannot be verified as accurate (confidence 15) [9DB08E60], AccurateRip returned [F2E9B2C0]
Track 3 cannot be verified as accurate (confidence 15) [E6D371DB], AccurateRip returned [1EAF3ED5]
Track 4 cannot be verified as accurate (confidence 15) [8888244F], AccurateRip returned [43D5E27F]
Track 5 cannot be verified as accurate (confidence 15) [EF9D71E4], AccurateRip returned [4AF87012]
Track 6 cannot be verified as accurate (confidence 15) [D29BAED2], AccurateRip returned [F9E76FFC]
Track 7 cannot be verified as accurate (confidence 14) [02E0265C], AccurateRip returned [9C2E7D00]
Track 8 cannot be verified as accurate (confidence 14) [9B338843], AccurateRip returned [E7404E6D]
Track 9 cannot be verified as accurate (confidence 14) [3587762D], AccurateRip returned [931CD7FD]
Track 10 cannot be verified as accurate (confidence 14) [2A4BDB4C], AccurateRip returned [FC155BEA]
Track 11 cannot be verified as accurate (confidence 15) [D6FFD652], AccurateRip returned [27AF5498]
Track 12 cannot be verified as accurate (confidence 15) [8CEC99E6], AccurateRip returned [DC7EB100]
Track 13 cannot be verified as accurate (confidence 15) [12E3490A], AccurateRip returned [E7070F50]
Track 14 cannot be verified as accurate (confidence 15) [AD7559FB], AccurateRip returned [06432D87]
No tracks could be verified as accurate
You may have a different pressing from the one(s) in the database
End of status report
Правила, инструкции, FAQ!!!
Торрент  Добавлен [26 июн 2020, 20:22] Скачать торрент Магнет ссылка
Скачать торрент
[ Размер 22.73 КБ / Просмотров 11 ]

Статус
Проверен 
 
Размер  549.47 МБ
Приватный: Нет (DHT включён)
.torrent скачан  0
 


     Отправить личное сообщение
   
Страница 1 из 1
Показать сообщения за:  Поле сортировки  
Начать новую тему Ответить на тему


Сейчас этот форум просматривают: нет зарегистрированных пользователей и гости: 0


Вы не можете начинать темы
Вы не можете отвечать на сообщения
Вы не можете редактировать свои сообщения
Вы не можете удалять свои сообщения
Вы не можете добавлять вложения

Перейти:  
cron