Начать новую тему Ответить на тему
Статистика раздачи
Размер: 533.65 МБ | Добавлен: 26 июн 2020, 20:28 | Скачали: 0
Сидеров: 0  [0 байт/сек]    Личеров: 0  [0 байт/сек]
Пред. тема | След. тема 

Автор
Сообщение

СообщениеДобавлено: 26 июн 2020, 20:28 

Ответить с цитатой 

Mentallo & The Fixer / Continuum
Жанр: EBM
Страна-производитель диска: USA
Год издания диска: 1995
Издатель (лейбл): Metropolis
Номер по каталогу: Met 013
Страна: USA
Аудио кодек: FLAC (*.flac)
Тип рипа: image+.cue
Битрейт аудио: lossless
Продолжительность: 73:06
Источник (релизер): собственный оригинальный диск
Наличие сканов в содержимом раздачи: да, 600dpi JPEG
Треклист:
01 Wicked + Extra Sensory Perception
02 Perish In Peril + Akoustikal
03 Mescaline
04 Narcotic
05 Doomsday Accelerate
06 Perish In Peril
07 Wicked
08 Clusterfuck
09 Continuum
10 Narcotic + Crystal Methane
11 Peril
12 Natalia
13 Wicked + Psychokinetic
Код:
Exact Audio Copy V1.0 beta 1 from 15. November 2010
EAC extraction logfile from 18. March 2011, 16:49
Mentallo & The Fixer / Continuum
Used drive  : TSSTcorpDVD+-RW TS-H653B   Adapter: 1  ID: 0
Read mode               : Secure
Utilize accurate stream : Yes
Defeat audio cache      : Yes
Make use of C2 pointers : No
Read offset correction                      : 6
Overread into Lead-In and Lead-Out          : No
Fill up missing offset samples with silence : Yes
Delete leading and trailing silent blocks   : No
Null samples used in CRC calculations       : Yes
Used interface                              : Native Win32 interface for Win NT & 2000
Used output format              : User Defined Encoder
Selected bitrate                : 896 kBit/s
Quality                         : High
Add ID3 tag                     : No
Command line compressor         : C:\Program Files\Exact Audio Copy\FLAC\FLAC.EXE
Additional command line options : -6 -V -T "ARTIST=%a" -T "TITLE=%t" -T "ALBUM=%g" -T "DATE=%y" -T "TRACKNUMBER=%n" -T "GENRE=%m" -T "COMMENT=%e" %j--picture="%i"%j %s -o %d
TOC of the extracted CD
     Track |   Start  |  Length  | Start sector | End sector
    ---------------------------------------------------------
        1  |  0:00.00 |  4:50.05 |         0    |    21754
        2  |  4:50.05 |  4:10.17 |     21755    |    40521
        3  |  9:00.22 |  1:00.58 |     40522    |    45079
        4  | 10:01.05 |  7:16.49 |     45080    |    77828
        5  | 17:17.54 |  6:54.73 |     77829    |   108951
        6  | 24:12.52 |  6:42.05 |    108952    |   139106
        7  | 30:54.57 |  6:05.45 |    139107    |   166526
        8  | 37:00.27 |  2:06.15 |    166527    |   175991
        9  | 39:06.42 |  4:57.73 |    175992    |   198339
       10  | 44:04.40 |  5:11.05 |    198340    |   221669
       11  | 49:15.45 |  4:22.70 |    221670    |   241389
       12  | 53:38.40 |  8:16.65 |    241390    |   278654
       13  | 61:55.30 | 11:11.32 |    278655    |   329011
Range status and errors
Selected range
     Filename D:\music\mtf\Mentallo & The Fixer - Continuum.wav
     Peak level 100.0 %
     Extraction speed 1.3 X
     Range quality 100.0 %
     Test CRC 4B8B137F
     Copy CRC 4B8B137F
     Copy OK
No errors occurred
AccurateRip summary
Track  1  accurately ripped (confidence 3)  [E90B1DA1]
Track  2  accurately ripped (confidence 3)  [B58487EA]
Track  3  accurately ripped (confidence 3)  [0C7FE137]
Track  4  accurately ripped (confidence 3)  [9C30CECD]
Track  5  accurately ripped (confidence 3)  [B597722C]
Track  6  accurately ripped (confidence 3)  [59FE0314]
Track  7  accurately ripped (confidence 3)  [EEC96540]
Track  8  accurately ripped (confidence 3)  [CE961F0E]
Track  9  accurately ripped (confidence 3)  [562129DA]
Track 10  accurately ripped (confidence 3)  [9CD86555]
Track 11  accurately ripped (confidence 3)  [1646C964]
Track 12  accurately ripped (confidence 3)  [91544344]
Track 13  accurately ripped (confidence 3)  [77FD8BA4]
All tracks accurately ripped
End of status report
Gary Dassing, Dwayne Dassing
Правила, инструкции, FAQ!!!
Торрент  Добавлен [26 июн 2020, 20:28] Скачать торрент Магнет ссылка
Скачать торрент
[ Размер 11.26 КБ / Просмотров 10 ]

Статус
Проверен 
 
Размер  533.65 МБ
Приватный: Нет (DHT включён)
.torrent скачан  0
 


     Отправить личное сообщение
   
Страница 1 из 1
Показать сообщения за:  Поле сортировки  
Начать новую тему Ответить на тему


Сейчас этот форум просматривают: нет зарегистрированных пользователей и гости: 0


Вы не можете начинать темы
Вы не можете отвечать на сообщения
Вы не можете редактировать свои сообщения
Вы не можете удалять свои сообщения
Вы не можете добавлять вложения

Перейти:  
cron