Начать новую тему Ответить на тему
Статистика раздачи
Размер: 346.91 МБ | Добавлен: 26 июн 2020, 17:12 | Скачали: 0
Сидеров: 0  [0 байт/сек]    Личеров: 0  [0 байт/сек]
Пред. тема | След. тема 

Автор
Сообщение

СообщениеДобавлено: 26 июн 2020, 17:12 

Ответить с цитатой 

Mekanik Disorder / Cold & Strong
Жанр: EBM
Страна-производитель диска: Spain
Год издания диска: 2010
Издатель (лейбл): Caustic Records
Номер по каталогу: CRR024
Страна: Spain
Аудио кодек: FLAC (*.flac)
Тип рипа: image+.cue
Битрейт аудио: lossless
Продолжительность: 0:53:07.33
Источник (релизер): CD из личной коллекции.
Наличие сканов в содержимом раздачи: да
Треклист:
01. Stigmatized 4:52
02. Das Letzte Mal 3:28
03. Oxydized Pleasure 4:43
04. Hate At First Sight 4:35
05. Ich Kontrolliere 3:35
06. Pieces Of Mine 4:09
07. Disorder On My Mind 3:53
08. Leave Me Alone 5:20
09. Kalte Leidenschaft 4:05
10. Dirty State 4:49
11. Orgullo Minero 3:49
12. Ik Ben God Niet 5:38
Код:
Exact Audio Copy V0.99 prebeta 5 from 4. May 2009
Отчёт EAC об извлечении, выполненном 5. ноября 2010, 15:11
 Mekanik Disorder / Cold & Strong
Дисковод: TSSTcorpCDDVDW TS-L632H   Adapter: 0  ID: 0
Режим чтения                 : Достоверность
Использование точного потока : Да
Отключение кэша аудио        : Да
Использование указателей C2  : Нет
Коррекция смещения при чтении                     : 6
Способность читать области Lead-in и Lead-out     : Нет
Заполнение пропущенных сэмплов тишиной            : Да
Удаление блоков с тишиной в начале и конце        : Нет
При вычислениях CRC использовались нулевые сэмплы : Да
Интерфейс                                         : Встроенный Win32-интерфейс для Win NT/2000
Выходной формат          : Пользовательский кодировщик
Выбранный битрейт        : 1024 kBit/s
Качество                 : Высокий
Добавление ID3-тэга      : Нет
Утилита сжатия           : C:\Program Files\Exact Audio Copy\FLAC\FLAC.EXE
Дополнительные параметры : -6 -V -T "ARTIST=%a" -T "TITLE=%t" -T "ALBUM=%g" -T "DATE=%y" -T "TRACKNUMBER=%n" -T "GENRE=%m" -T "COMMENT=%e" %s -o %d
TOC извлечённого CD
     Трек |   Старт  | Длительность | Начальный сектор | Конечный сектор
    ---------------------------------------------------------------------
       1  |  0:00.00 |    4:52.36   |           0      |      21935
       2  |  4:52.36 |    3:28.10   |       21936      |      37545
       3  |  8:20.46 |    4:42.63   |       37546      |      58758
       4  | 13:03.34 |    4:34.38   |       58759      |      79346
       5  | 17:37.72 |    3:45.12   |       79347      |      96233
       6  | 21:23.09 |    4:09.25   |       96234      |     114933
       7  | 25:32.34 |    3:52.50   |      114934      |     132383
       8  | 29:25.09 |    5:19.61   |      132384      |     156369
       9  | 34:44.70 |    4:05.23   |      156370      |     174767
      10  | 38:50.18 |    4:49.35   |      174768      |     196477
      11  | 43:39.53 |    3:49.30   |      196478      |     213682
      12  | 47:29.08 |    5:38.25   |      213683      |     239057
Характеристики диапазона извлечения и сообщения об ошибках
Выбранный диапазон
     Имя файла C:\Users\Алексей\Desktop\iPOD\Mekanik Disorder - Cold & Strong.wav
     Пиковый уровень 100.0 %
     Качество диапазона 100.0 %
     CRC теста EAC7D13B
     CRC копии EAC7D13B
     Копирование... OK
Ошибок не произошло
AccurateRip: сводка
Трек  1  нет в базе данных
Трек  2  нет в базе данных
Трек  3  нет в базе данных
Трек  4  нет в базе данных
Трек  5  нет в базе данных
Трек  6  нет в базе данных
Трек  7  нет в базе данных
Трек  8  нет в базе данных
Трек  9  нет в базе данных
Трек 10  нет в базе данных
Трек 11  нет в базе данных
Трек 12  нет в базе данных
Ни одного трека нет в базе AccurateRip
Конец отчёта
Код:
REM GENRE EBM
REM DATE 2010
REM DISCID A20C730C
REM COMMENT "ExactAudioCopy v0.99pb5"
PERFORMER " Mekanik Disorder"
TITLE "Cold & Strong"
FILE "Mekanik Disorder - Cold & Strong.flac" WAVE
  TRACK 01 AUDIO
    TITLE "Stigmatized"
    PERFORMER " Mekanik Disorder"
    INDEX 01 00:00:00
  TRACK 02 AUDIO
    TITLE "Das Letzte Mal"
    PERFORMER " Mekanik Disorder"
    INDEX 00 04:51:36
    INDEX 01 04:52:36
  TRACK 03 AUDIO
    TITLE "Oxydized Pleasure"
    PERFORMER " Mekanik Disorder"
    INDEX 00 08:19:46
    INDEX 01 08:20:46
  TRACK 04 AUDIO
    TITLE "Hate At First Sight"
    PERFORMER " Mekanik Disorder"
    INDEX 00 13:02:34
    INDEX 01 13:03:34
  TRACK 05 AUDIO
    TITLE "Ich Kontrolliere"
    PERFORMER " Mekanik Disorder"
    INDEX 00 17:36:72
    INDEX 01 17:37:72
  TRACK 06 AUDIO
    TITLE "Pieces Of Mine"
    PERFORMER " Mekanik Disorder"
    INDEX 00 21:22:09
    INDEX 01 21:23:09
  TRACK 07 AUDIO
    TITLE "Disorder On My Mind"
    PERFORMER " Mekanik Disorder"
    INDEX 00 25:31:34
    INDEX 01 25:32:34
  TRACK 08 AUDIO
    TITLE "Leave Me Alone"
    PERFORMER " Mekanik Disorder"
    INDEX 00 29:24:09
    INDEX 01 29:25:09
  TRACK 09 AUDIO
    TITLE "Kalte Leidenschaft"
    PERFORMER " Mekanik Disorder"
    INDEX 00 34:43:70
    INDEX 01 34:44:70
  TRACK 10 AUDIO
    TITLE "Dirty State"
    PERFORMER " Mekanik Disorder"
    INDEX 00 38:49:18
    INDEX 01 38:50:18
  TRACK 11 AUDIO
    TITLE "Orgullo Minero"
    PERFORMER " Mekanik Disorder"
    INDEX 00 43:38:53
    INDEX 01 43:39:53
  TRACK 12 AUDIO
    TITLE "Ik Ben God Niet"
    PERFORMER " Mekanik Disorder"
    INDEX 00 47:28:08
    INDEX 01 47:29:08
Код:
[url=https://fastpic.ru/view/12/2010/1201/615d228483140390c1a5fdcc732ec02d.jpg.html][img]http://i12.fastpic.ru/thumb/2010/1201/2d/615d228483140390c1a5fdcc732ec02d.jpeg[/img][/url]
ОГРОМНАЯ БЛАГОДАРНОСТЬ НАШЕМУ КОЛЛЕГЕ KERGARN`у ЗА СКАНЫ!!!
Правила, инструкции, FAQ!!!
Торрент  Добавлен [26 июн 2020, 17:12] Скачать торрент Магнет ссылка
Скачать торрент
[ Размер 14.85 КБ / Просмотров 3 ]

Статус
Проверен 
 
Размер  346.91 МБ
Приватный: Нет (DHT включён)
.torrent скачан  0
 


     Отправить личное сообщение
   
Страница 1 из 1
Показать сообщения за:  Поле сортировки  
Начать новую тему Ответить на тему


Сейчас этот форум просматривают: нет зарегистрированных пользователей и гости: 0


Вы не можете начинать темы
Вы не можете отвечать на сообщения
Вы не можете редактировать свои сообщения
Вы не можете удалять свои сообщения
Вы не можете добавлять вложения

Перейти:  
cron