Начать новую тему Ответить на тему
Статистика раздачи
Размер: 597.55 МБ | Добавлен: 26 июн 2020, 20:02 | Скачали: 0
Сидеров: 0  [0 байт/сек]    Личеров: 0  [0 байт/сек]
Пред. тема | След. тема 

Автор
Сообщение

СообщениеДобавлено: 26 июн 2020, 20:02 

Ответить с цитатой 

May-Fly feat. Wynardtage / The Face In The Mirror
Жанр: EBM
Страна-производитель диска: Germany
Год издания диска: 2007
Издатель (лейбл): Rupal Records
Номер по каталогу: RR006
Аудио кодек: FLAC (*.flac)
Тип рипа: image+.cue
Битрейт аудио: lossless
Продолжительность: 1:16:35.21
Источник (релизер): Физический носитель
Наличие сканов в содержимом раздачи: да
Треклист:
01. The Face In The Mirror (Single Edit Version) [3:47]
02. The Face In The Mirror (Club Version) [5:09]
03. Die Hьlle [4:10]
04. Ich Will Tanzen 2007 [6:27]
05. Suicide By Train [5:28]
06. Save Our Souls [5:05]
07. Angelie (Exclusive Version) [6:30]
08. Save Me From The Darkness (Edit Version) [2:54]
09. Who Is Your Messiah [4:52]
10. The Face In The Mirror (Nurzery Rhymes remix) [4:46]
11. The Face In The Mirror (Schweinwelt mix by Re:\Legion) [5:19]
12. The Face In The Mirror (A7IEMIX) [5:23]
13. The Face In The Mirror (Hunger mix by Acylum) [4:36]
14. The Face In The Mirror (Virtual Victim remix) [4:17]
15. The Face In The Mirror (Stin Scatzor remake) [4:18]
16. The Face In The Mirror (The Fallen By IInsanity) [3:33]
Код:
Exact Audio Copy V0.99 prebeta 5 from 4. May 2009
Отчёт EAC об извлечении, выполненном 24. ноября 2010, 19:06
May Fly feat. Wynardtage / The Face In The Mirror
Дисковод: Optiarc DVD RW AD-7173A   Adapter: 0  ID: 0
Режим чтения                 : Достоверность
Использование точного потока : Да
Отключение кэша аудио        : Да
Использование указателей C2  : Нет
Коррекция смещения при чтении                     : 48
Способность читать области Lead-in и Lead-out     : Нет
Заполнение пропущенных сэмплов тишиной            : Да
Удаление блоков с тишиной в начале и конце        : Нет
При вычислениях CRC использовались нулевые сэмплы : Да
Интерфейс                                         : Установленный внешний ASPI-интерфейс
Выходной формат          : Пользовательский кодировщик
Выбранный битрейт        : 1024 kBit/s
Качество                 : Высокий
Добавление ID3-тэга      : Нет
Утилита сжатия           : C:\Program Files\Exact Audio Copy\flac.exe
Дополнительные параметры : -6 -V -T "ARTIST=%a" -T "TITLE=%t" -T "ALBUM=%g" -T "DATE=%y" -T "TRACKNUMBER=%n" -T "GENRE=%m" -T "COMMENT=%e" %s -o %d
TOC извлечённого CD
     Трек |   Старт  | Длительность | Начальный сектор | Конечный сектор
    ---------------------------------------------------------------------
       1  |  0:00.00 |    3:46.68   |           0      |      17017
       2  |  3:46.68 |    5:08.70   |       17018      |      40187
       3  |  8:55.63 |    4:10.33   |       40188      |      58970
       4  | 13:06.21 |    6:27.26   |       58971      |      88021
       5  | 19:33.47 |    5:28.01   |       88022      |     112622
       6  | 25:01.48 |    5:05.33   |      112623      |     135530
       7  | 30:07.06 |    6:30.10   |      135531      |     164790
       8  | 36:37.16 |    2:53.68   |      164791      |     177833
       9  | 39:31.09 |    4:51.45   |      177834      |     199703
      10  | 44:22.54 |    4:45.65   |      199704      |     221143
      11  | 49:08.44 |    5:19.17   |      221144      |     245085
      12  | 54:27.61 |    5:23.31   |      245086      |     269341
      13  | 59:51.17 |    4:35.58   |      269342      |     290024
      14  | 64:27.00 |    4:17.19   |      290025      |     309318
      15  | 68:44.19 |    4:18.23   |      309319      |     328691
      16  | 73:02.42 |    3:32.54   |      328692      |     344645
Характеристики диапазона извлечения и сообщения об ошибках
Выбранный диапазон
     Имя файла D:\Музыка\May Fly feat. Wynardtage - The Face In The Mirror.wav
     Пиковый уровень 100.0 %
     Качество диапазона 100.0 %
     CRC теста 9B9050C2
     CRC копии 9B9050C2
     Копирование... OK
Ошибок не произошло
AccurateRip: сводка
Трек  1  точное извлечение (доверие 1)  [90EB1915]
Трек  2  точное извлечение (доверие 1)  [C936E6E4]
Трек  3  точное извлечение (доверие 1)  [ACA8DC82]
Трек  4  точное извлечение (доверие 1)  [D5F1AC2C]
Трек  5  точное извлечение (доверие 1)  [B3AFE29C]
Трек  6  точное извлечение (доверие 1)  [86A93093]
Трек  7  точное извлечение (доверие 1)  [312CC052]
Трек  8  точное извлечение (доверие 1)  [22CA8D18]
Трек  9  точное извлечение (доверие 1)  [8D4500FC]
Трек 10  точное извлечение (доверие 1)  [FD3F9807]
Трек 11  точное извлечение (доверие 1)  [91FB7904]
Трек 12  точное извлечение (доверие 1)  [B120F2BE]
Трек 13  точное извлечение (доверие 1)  [A55C1B49]
Трек 14  точное извлечение (доверие 1)  [307DE239]
Трек 15  точное извлечение (доверие 1)  [C516E07B]
Трек 16  точное извлечение (доверие 1)  [B8680D2D]
Все треки извлечены точно
Конец отчёта
Правила, инструкции, FAQ!!!
Торрент  Добавлен [26 июн 2020, 20:02] Скачать торрент Магнет ссылка
Скачать торрент
[ Размер 12.63 КБ / Просмотров 8 ]

Статус
Проверен 
 
Размер  597.55 МБ
Приватный: Нет (DHT включён)
.torrent скачан  0
 


     Отправить личное сообщение
   
Страница 1 из 1
Показать сообщения за:  Поле сортировки  
Начать новую тему Ответить на тему


Сейчас этот форум просматривают: нет зарегистрированных пользователей и гости: 0


Вы не можете начинать темы
Вы не можете отвечать на сообщения
Вы не можете редактировать свои сообщения
Вы не можете удалять свои сообщения
Вы не можете добавлять вложения

Перейти:  
cron