Начать новую тему Ответить на тему
Статистика раздачи
Размер: 334.72 МБ | Добавлен: 26 июн 2020, 17:25 | Скачали: 0
Сидеров: 0  [0 байт/сек]    Личеров: 0  [0 байт/сек]
Пред. тема | След. тема 

Автор
Сообщение

СообщениеДобавлено: 26 июн 2020, 17:25 

Ответить с цитатой 

X-Marks The Pedwalk - Meshwork (CD, Album)
Жанр: EBM
Год выпуска диска: 1996
Производитель диска: Германия
Аудио кодек: FLAC
Тип рипа: tracks+.cue
Битрейт аудио: lossless
Продолжительность: 00:56:10
Трэклист:
01. Meshwork.m.1 (5:24)
02. Monomaniac (6:22)
03. Free and Alive (with Estefania) (6:57)
04. Special sign (7:05)
05. Emotion (7:17)
06. Never Look Back (with Estefania) (5:45)
07. T.O.L. (6:13)
08. N-A-Lyse (6:25)
09. Meshwork.y.2 (4:42)

Дискография в MP3
Exact Audio Copy V0.99 prebeta 5 from 4. May 2009
EAC extraction logfile from 5. September 2009, 17:30
X Marks the Pedwalk / Meshwork
Used drive : ASUS DRW-1604P Adapter: 0 ID: 2
Read mode : Secure
Utilize accurate stream : Yes
Defeat audio cache : Yes
Make use of C2 pointers : No
Read offset correction : 48
Overread into Lead-In and Lead-Out : No
Fill up missing offset samples with silence : Yes
Delete leading and trailing silent blocks : No
Null samples used in CRC calculations : Yes
Used interface : Installed external ASPI interface
Gap handling : Appended to previous track
Used output format : User Defined Encoder
Selected bitrate : 320 kBit/s
Quality : High
Add ID3 tag : No
Command line compressor : C:\Program Files\FLAC\flac.exe
Additional command line options : -V -8 -T "artist=%a" -T "title=%t" -T "album=%g" -T "date=%y" -T "tracknumber=%n" -T "genre=%m" %s
TOC of the extracted CD
Track | Start | Length | Start sector | End sector
---------------------------------------------------------
1 | 0:00.00 | 5:23.62 | 0 | 24286
2 | 5:23.62 | 6:21.48 | 24287 | 52909
3 | 11:45.35 | 6:56.42 | 52910 | 84151
4 | 18:42.02 | 7:05.23 | 84152 | 116049
5 | 25:47.25 | 7:16.60 | 116050 | 148809
6 | 33:04.10 | 5:45.35 | 148810 | 174719
7 | 38:49.45 | 6:13.25 | 174720 | 202719
8 | 45:02.70 | 6:24.40 | 202720 | 231559
9 | 51:27.35 | 4:42.30 | 231560 | 252739
Track 1
Filename C:\Documents and Settings\Korisnik\Desktop\Encoded\X Marks the Pedwalk\Meshwork\01 - Meshwork.m.1.wav
Pre-gap length 0:00:02.00
Peak level 98.0 %
Track quality 100.0 %
Test CRC B80582E9
Copy CRC B80582E9
Cannot be verified as accurate (confidence 7) [6AE82F7E], AccurateRip returned [59A2D20A]
Copy OK
Track 2
Filename C:\Documents and Settings\Korisnik\Desktop\Encoded\X Marks the Pedwalk\Meshwork\02 - Monomaniac.wav
Pre-gap length 0:00:01.14
Peak level 98.0 %
Track quality 100.0 %
Test CRC E200C020
Copy CRC E200C020
Cannot be verified as accurate (confidence 7) [A3CEDB0C], AccurateRip returned [ED684848]
Copy OK
Track 3
Filename C:\Documents and Settings\Korisnik\Desktop\Encoded\X Marks the Pedwalk\Meshwork\03 - Free and Alive (with Estefania).wav
Pre-gap length 0:00:01.73
Peak level 98.0 %
Track quality 100.0 %
Test CRC 860B8AB7
Copy CRC 860B8AB7
Cannot be verified as accurate (confidence 7) [C8CC3A12], AccurateRip returned [C09D7662]
Copy OK
Track 4
Filename C:\Documents and Settings\Korisnik\Desktop\Encoded\X Marks the Pedwalk\Meshwork\04 - Special sign.wav
Pre-gap length 0:00:02.13
Peak level 98.0 %
Track quality 100.0 %
Test CRC 04BDBAEE
Copy CRC 04BDBAEE
Cannot be verified as accurate (confidence 7) [52616EB4], AccurateRip returned [462A1B68]
Copy OK
Track 5
Filename C:\Documents and Settings\Korisnik\Desktop\Encoded\X Marks the Pedwalk\Meshwork\05 - Emotion.wav
Pre-gap length 0:00:02.13
Peak level 98.0 %
Track quality 100.0 %
Test CRC E75F7858
Copy CRC E75F7858
Cannot be verified as accurate (confidence 7) [165A925C], AccurateRip returned [7D81AB34]
Copy OK
Track 6
Filename C:\Documents and Settings\Korisnik\Desktop\Encoded\X Marks the Pedwalk\Meshwork\06 - Never Look Back (with Estefania).wav
Pre-gap length 0:00:01.73
Peak level 98.0 %
Track quality 100.0 %
Test CRC 42053303
Copy CRC 42053303
Cannot be verified as accurate (confidence 7) [62146128], AccurateRip returned [5754458C]
Copy OK
Track 7
Filename C:\Documents and Settings\Korisnik\Desktop\Encoded\X Marks the Pedwalk\Meshwork\07 - T.O.L..wav
Pre-gap length 0:00:01.54
Peak level 98.0 %
Track quality 100.0 %
Test CRC 51C552F7
Copy CRC 51C552F7
Cannot be verified as accurate (confidence 7) [B3AA5B50], AccurateRip returned [C76373F4]
Copy OK
Track 8
Filename C:\Documents and Settings\Korisnik\Desktop\Encoded\X Marks the Pedwalk\Meshwork\08 - N-A-Lyse.wav
Pre-gap length 0:00:02.13
Peak level 98.0 %
Track quality 99.9 %
Test CRC EACDD98C
Copy CRC EACDD98C
Cannot be verified as accurate (confidence 7) [51DE8D07], AccurateRip returned [C5E505DF]
Copy OK
Track 9
Filename C:\Documents and Settings\Korisnik\Desktop\Encoded\X Marks the Pedwalk\Meshwork\09 - Meshwork.y.2.wav
Pre-gap length 0:00:02.13
Peak level 98.0 %
Track quality 100.0 %
Test CRC FDB9AF58
Copy CRC FDB9AF58
Cannot be verified as accurate (confidence 7) [F50128D1], AccurateRip returned [989E2869]
Copy OK
No tracks could be verified as accurate
You may have a different pressing from the one(s) in the database
No errors occurred
End of status report

Раздаю 24/7
Правила, инструкции, FAQ!!!
Торрент  Добавлен [26 июн 2020, 17:25] Скачать торрент Магнет ссылка
Скачать торрент
[ Размер 14.2 КБ / Просмотров 10 ]

Статус
Проверен 
 
Размер  334.72 МБ
Приватный: Нет (DHT включён)
.torrent скачан  0
 


     Отправить личное сообщение
   
Страница 1 из 1
Показать сообщения за:  Поле сортировки  
Начать новую тему Ответить на тему


Сейчас этот форум просматривают: нет зарегистрированных пользователей и гости: 0


Вы не можете начинать темы
Вы не можете отвечать на сообщения
Вы не можете редактировать свои сообщения
Вы не можете удалять свои сообщения
Вы не можете добавлять вложения

Перейти:  
cron