Начать новую тему Ответить на тему
Статистика раздачи
Размер: 399.9 МБ | Добавлен: 26 июн 2020, 19:52 | Скачали: 0
Сидеров: 0  [0 байт/сек]    Личеров: 0  [0 байт/сек]
Пред. тема | След. тема 

Автор
Сообщение

СообщениеДобавлено: 26 июн 2020, 19:52 

Ответить с цитатой 

X-Marks The Pedwalk - Freaks (CD, Album, RE, RM)
Жанр: EBM
Год выпуска диска: 1998
Производитель диска: С.Ш.А.
Аудио кодек: FLAC
Тип рипа: tracks+.cue
Битрейт аудио: lossless
Продолжительность: 01:02:57
Трэклист:
01. Zest (3:38)
02. Repression (5:23)
03. Swastika (4:11)
04. Express My Sentimnets Exactly (3:46)
05. The Shot (4:12)
06. Helpless (3:43)
07. Battered Babies (4:00)
08. Church for Snow White (3:40)
09. Epilogue (2:19)
10. Feast of the Resurrection (5:27)
11. I See You [Second View] (2:46)
12. No Premonition [Re-Edit] (6:26)
13. Paranoid Illusions [Sky Mix] (7:32)
14. Interruption (5:52)

Дискография в MP3
Exact Audio Copy V0.99 prebeta 4 from 23. January 2008
EAC extraction logfile from 30. October 2008, 19:37
X Marks The Pedwalk / Freaks
Used drive : TSSTcorpDVD+-RW TS-H653B Adapter: 1 ID: 0
Read mode : Secure
Utilize accurate stream : Yes
Defeat audio cache : Yes
Make use of C2 pointers : No
Read offset correction : 6
Overread into Lead-In and Lead-Out : No
Fill up missing offset samples with silence : Yes
Delete leading and trailing silent blocks : No
Null samples used in CRC calculations : Yes
Used interface : Installed external ASPI interface
Gap handling : Appended to previous track
Used output format : User Defined Encoder
Selected bitrate : 192 kBit/s
Quality : High
Add ID3 tag : No
Command line compressor : C:\Program Files\Exact Audio Copy\Flac\flac.exe
Additional command line options : -V -8 -T "artist=%a" -T "title=%t" -T "album=%g" -T "date=%y" -T "tracknumber=%n" -T "genre=%m" %s
TOC of the extracted CD
Track | Start | Length | Start sector | End sector
---------------------------------------------------------
1 | 0:01.00 | 3:38.29 | 75 | 16453
2 | 3:39.29 | 5:22.73 | 16454 | 40676
3 | 9:02.27 | 4:11.03 | 40677 | 59504
4 | 13:13.30 | 3:46.28 | 59505 | 76482
5 | 16:59.58 | 4:12.02 | 76483 | 95384
6 | 21:11.60 | 3:42.68 | 95385 | 112102
7 | 24:54.53 | 3:59.54 | 112103 | 130081
8 | 28:54.32 | 3:40.06 | 130082 | 146587
9 | 32:34.38 | 2:19.03 | 146588 | 157015
10 | 34:53.41 | 5:27.25 | 157016 | 181565
11 | 40:20.66 | 2:46.35 | 181566 | 194050
12 | 43:07.26 | 6:25.65 | 194051 | 222990
13 | 49:33.16 | 7:32.27 | 222991 | 256917
14 | 57:05.43 | 5:52.07 | 256918 | 283324
Track 1
Filename F:\A\X Marks The Pedwalk - Freaks [flac]\01 - Zest.wav
Pre-gap length 0:00:03.00
Peak level 100.0 %
Track quality 100.0 %
Test CRC A63B4298
Copy CRC A63B4298
Accurately ripped (confidence 2) [C019D3E6]
Copy OK
Track 2
Filename F:\A\X Marks The Pedwalk - Freaks [flac]\02 - Repression.wav
Pre-gap length 0:00:02.60
Peak level 100.0 %
Track quality 100.0 %
Test CRC F6A01D62
Copy CRC F6A01D62
Accurately ripped (confidence 2) [9E303569]
Copy OK
Track 3
Filename F:\A\X Marks The Pedwalk - Freaks [flac]\03 - Swastika.wav
Pre-gap length 0:00:02.60
Peak level 100.0 %
Track quality 99.9 %
Test CRC A0A9C330
Copy CRC A0A9C330
Accurately ripped (confidence 2) [898FA383]
Copy OK
Track 4
Filename F:\A\X Marks The Pedwalk - Freaks [flac]\04 - Express My Sentimnets Exactly.wav
Pre-gap length 0:00:02.60
Peak level 100.0 %
Track quality 100.0 %
Test CRC E0629978
Copy CRC E0629978
Accurately ripped (confidence 2) [84BD8E75]
Copy OK
Track 5
Filename F:\A\X Marks The Pedwalk - Freaks [flac]\05 - The Shot.wav
Pre-gap length 0:00:02.60
Peak level 100.0 %
Track quality 99.9 %
Test CRC 67AEED17
Copy CRC 67AEED17
Accurately ripped (confidence 2) [23AB6FA5]
Copy OK
Track 6
Filename F:\A\X Marks The Pedwalk - Freaks [flac]\06 - Helpless.wav
Pre-gap length 0:00:02.60
Peak level 100.0 %
Track quality 100.0 %
Test CRC 9F303EEE
Copy CRC 9F303EEE
Accurately ripped (confidence 2) [07FF57EA]
Copy OK
Track 7
Filename F:\A\X Marks The Pedwalk - Freaks [flac]\07 - Battered Babies.wav
Pre-gap length 0:00:02.60
Peak level 100.0 %
Track quality 99.9 %
Test CRC 0794DC61
Copy CRC 0794DC61
Accurately ripped (confidence 2) [5BC58201]
Copy OK
Track 8
Filename F:\A\X Marks The Pedwalk - Freaks [flac]\08 - Church for Snow White.wav
Pre-gap length 0:00:02.60
Peak level 100.0 %
Track quality 100.0 %
Test CRC 66BA29D9
Copy CRC 66BA29D9
Accurately ripped (confidence 2) [F547FF04]
Copy OK
Track 9
Filename F:\A\X Marks The Pedwalk - Freaks [flac]\09 - Epilogue.wav
Pre-gap length 0:00:02.60
Peak level 100.0 %
Track quality 100.0 %
Test CRC 198B80B8
Copy CRC 198B80B8
Accurately ripped (confidence 2) [7341C036]
Copy OK
Track 10
Filename F:\A\X Marks The Pedwalk - Freaks [flac]\10 - Feast of the Resurrection.wav
Pre-gap length 0:00:02.60
Peak level 100.0 %
Track quality 100.0 %
Test CRC 830377DD
Copy CRC 830377DD
Accurately ripped (confidence 2) [18019AC0]
Copy OK
Track 11
Filename F:\A\X Marks The Pedwalk - Freaks [flac]\11 - I See You [Second View].wav
Pre-gap length 0:00:02.60
Peak level 100.0 %
Track quality 100.0 %
Test CRC AA5B5790
Copy CRC AA5B5790
Accurately ripped (confidence 2) [16B636F9]
Copy OK
Track 12
Filename F:\A\X Marks The Pedwalk - Freaks [flac]\12 - No Premonition [Re-Edit].wav
Pre-gap length 0:00:02.60
Peak level 100.0 %
Track quality 99.9 %
Test CRC AC3DB4A0
Copy CRC AC3DB4A0
Accurately ripped (confidence 2) [9769CAEC]
Copy OK
Track 13
Filename F:\A\X Marks The Pedwalk - Freaks [flac]\13 - Paranoid Illusions [Sky Mix].wav
Pre-gap length 0:00:02.60
Peak level 100.0 %
Track quality 100.0 %
Test CRC 7D1821CD
Copy CRC 7D1821CD
Accurately ripped (confidence 2) [5375344E]
Copy OK
Track 14
Filename F:\A\X Marks The Pedwalk - Freaks [flac]\14 - Interruption.wav
Pre-gap length 0:00:02.60
Peak level 100.0 %
Track quality 100.0 %
Test CRC D61F9278
Copy CRC D61F9278
Accurately ripped (confidence 2) [59567252]
Copy OK
All tracks accurately ripped
No errors occurred
End of status report
REM GENRE Industrial
REM DATE 1991
REM DISCID CE0EC00E
REM COMMENT "ExactAudioCopy v0.99pb4"
PERFORMER "X Marks The Pedwalk"
TITLE "Freaks"
FILE "01 - Zest.wav" WAVE
TRACK 01 AUDIO
TITLE "Zest"
PERFORMER "X Marks The Pedwalk"
FLAGS DCP
PREGAP 00:01:00
INDEX 01 00:00:00
TRACK 02 AUDIO
TITLE "Repression"
PERFORMER "X Marks The Pedwalk"
FLAGS DCP
INDEX 00 03:35:59
FILE "02 - Repression.wav" WAVE
INDEX 01 00:00:00
TRACK 03 AUDIO
TITLE "Swastika"
PERFORMER "X Marks The Pedwalk"
FLAGS DCP
INDEX 00 05:20:28
FILE "03 - Swastika.wav" WAVE
INDEX 01 00:00:00
TRACK 04 AUDIO
TITLE "Express My Sentimnets Exactly"
PERFORMER "X Marks The Pedwalk"
FLAGS DCP
INDEX 00 04:08:33
FILE "04 - Express My Sentimnets Exactly.wav" WAVE
INDEX 01 00:00:00
TRACK 05 AUDIO
TITLE "The Shot"
PERFORMER "X Marks The Pedwalk"
FLAGS DCP
INDEX 00 03:43:58
FILE "05 - The Shot.wav" WAVE
INDEX 01 00:00:00
TRACK 06 AUDIO
TITLE "Helpless"
PERFORMER "X Marks The Pedwalk"
FLAGS DCP
INDEX 00 04:09:32
FILE "06 - Helpless.wav" WAVE
INDEX 01 00:00:00
TRACK 07 AUDIO
TITLE "Battered Babies"
PERFORMER "X Marks The Pedwalk"
FLAGS DCP
INDEX 00 03:40:23
FILE "07 - Battered Babies.wav" WAVE
INDEX 01 00:00:00
TRACK 08 AUDIO
TITLE "Church for Snow White"
PERFORMER "X Marks The Pedwalk"
FLAGS DCP
INDEX 00 03:57:09
FILE "08 - Church for Snow White.wav" WAVE
INDEX 01 00:00:00
TRACK 09 AUDIO
TITLE "Epilogue"
PERFORMER "X Marks The Pedwalk"
FLAGS DCP
INDEX 00 03:37:36
FILE "09 - Epilogue.wav" WAVE
INDEX 01 00:00:00
TRACK 10 AUDIO
TITLE "Feast of the Resurrection"
PERFORMER "X Marks The Pedwalk"
FLAGS DCP
INDEX 00 02:16:33
FILE "10 - Feast of the Resurrection.wav" WAVE
INDEX 01 00:00:00
TRACK 11 AUDIO
TITLE "I See You [Second View]"
PERFORMER "X Marks The Pedwalk"
FLAGS DCP
INDEX 00 05:24:55
FILE "11 - I See You [Second View].wav" WAVE
INDEX 01 00:00:00
TRACK 12 AUDIO
TITLE "No Premonition [Re-Edit]"
PERFORMER "X Marks The Pedwalk"
FLAGS DCP
INDEX 00 02:43:65
FILE "12 - No Premonition [Re-Edit].wav" WAVE
INDEX 01 00:00:00
TRACK 13 AUDIO
TITLE "Paranoid Illusions [Sky Mix]"
PERFORMER "X Marks The Pedwalk"
FLAGS DCP
INDEX 00 06:23:20
FILE "13 - Paranoid Illusions [Sky Mix].wav" WAVE
INDEX 01 00:00:00
TRACK 14 AUDIO
TITLE "Interruption"
PERFORMER "X Marks The Pedwalk"
FLAGS DCP
INDEX 00 07:29:57
FILE "14 - Interruption.wav" WAVE
INDEX 01 00:00:00

Правила, инструкции, FAQ!!!
Торрент  Добавлен [26 июн 2020, 19:52] Скачать торрент Магнет ссылка
Скачать торрент
[ Размер 17.04 КБ / Просмотров 8 ]

Статус
Проверен 
 
Размер  399.9 МБ
Приватный: Нет (DHT включён)
.torrent скачан  0
 


     Отправить личное сообщение
   
Страница 1 из 1
Показать сообщения за:  Поле сортировки  
Начать новую тему Ответить на тему


Сейчас этот форум просматривают: нет зарегистрированных пользователей и гости: 0


Вы не можете начинать темы
Вы не можете отвечать на сообщения
Вы не можете редактировать свои сообщения
Вы не можете удалять свои сообщения
Вы не можете добавлять вложения

Перейти:  
cron