Начать новую тему Ответить на тему
Статистика раздачи
Размер: 389.79 МБ | Добавлен: 26 июн 2020, 17:25 | Скачали: 0
Сидеров: 0  [0 байт/сек]    Личеров: 0  [0 байт/сек]
Пред. тема | След. тема 

Автор
Сообщение

СообщениеДобавлено: 26 июн 2020, 17:25 

Ответить с цитатой 

X-Marks The Pedwalk - Four Fit (The Singles Part II)(CD, Comp)
Жанр: EBM
Год выпуска диска: 1995
Производитель диска: С.Ш.А.
Аудио кодек: FLAC
Тип рипа: tracks+.cue
Битрейт аудио: lossless
Продолжительность: 01:04:29
Трэклист:
01. Facer (5:40)
02. Missing Light (4:28)
03. Ten Miles (4:31)
04. Facer X-Tremix (4:19)
05. Paranoid Illusions (Face Edit) (4:40)
06. I See You (5:11)
07. consciousness (2:53)
08. Why? (4:00)
09. The Trap (5:11)
10. You Are Out (4:02)
11. Inside (2:48)
12. Cenotaph (5:54)
13. Never Dare to Ask (3:56)
14. Helpless (Final D.) (3:51)
15. Seclusion (3:07)

Дискография в MP3
Exact Audio Copy V0.99 prebeta 4 from 23. January 2008
EAC extraction logfile from 7. May 2009, 15:27
X Marks the Pedwalk / Four Fit (The Singles Collection Part II)
Used drive : PBDS CD-ROM DH-48N1P Adapter: 0 ID: 0
Read mode : Secure
Utilize accurate stream : Yes
Defeat audio cache : Yes
Make use of C2 pointers : No
Read offset correction : 6
Overread into Lead-In and Lead-Out : No
Fill up missing offset samples with silence : Yes
Delete leading and trailing silent blocks : No
Null samples used in CRC calculations : No
Used interface : Native Win32 interface for Win NT & 2000
Gap handling : Appended to previous track
Used output format : User Defined Encoder
Selected bitrate : 128 kBit/s
Quality : High
Add ID3 tag : No
Command line compressor : D:\Exact Audio Copy\Flac\flac.exe
Additional command line options : -V -8 -T "artist=%a" -T "title=%t" -T "album=%g" -T "date=%y" -T "tracknumber=%n" -T "genre=%m" %s
TOC of the extracted CD
Track | Start | Length | Start sector | End sector
---------------------------------------------------------
1 | 0:00.50 | 5:39.52 | 50 | 25526
2 | 5:40.27 | 4:27.38 | 25527 | 45589
3 | 10:07.65 | 4:30.65 | 45590 | 65904
4 | 14:38.55 | 4:19.35 | 65905 | 85364
5 | 18:58.15 | 4:39.70 | 85365 | 106359
6 | 23:38.10 | 5:10.50 | 106360 | 129659
7 | 28:48.60 | 2:53.27 | 129660 | 142661
8 | 31:42.12 | 3:59.50 | 142662 | 160636
9 | 35:41.62 | 5:11.00 | 160637 | 183961
10 | 40:52.62 | 4:01.45 | 183962 | 202081
11 | 44:54.32 | 2:48.03 | 202082 | 214684
12 | 47:42.35 | 5:53.52 | 214685 | 241211
13 | 53:36.12 | 3:56.23 | 241212 | 258934
14 | 57:32.35 | 3:50.62 | 258935 | 276246
15 | 61:23.22 | 3:06.45 | 276247 | 290241
Track 1
Filename D:\mp3\x marks the pedwalk - four fit flac\X Marks the Pedwalk - Four Fit (The Singles Collection Part II) - 01 - Facer.wav
Pre-gap length 0:00:02.50
Peak level 96.3 %
Track quality 99.9 %
Test CRC 9EB3C951
Copy CRC 9EB3C951
Accurately ripped (confidence 7) [AE32D376]
Copy OK
Track 2
Filename D:\mp3\x marks the pedwalk - four fit flac\X Marks the Pedwalk - Four Fit (The Singles Collection Part II) - 02 - Missing Light.wav
Pre-gap length 0:00:00.50
Peak level 96.1 %
Track quality 100.0 %
Test CRC B56E81C1
Copy CRC B56E81C1
Accurately ripped (confidence 7) [2CCCC63A]
Copy OK
Track 3
Filename D:\mp3\x marks the pedwalk - four fit flac\X Marks the Pedwalk - Four Fit (The Singles Collection Part II) - 03 - Ten Miles.wav
Pre-gap length 0:00:00.25
Peak level 96.1 %
Track quality 100.0 %
Test CRC 06842F0B
Copy CRC 06842F0B
Accurately ripped (confidence 7) [559F51AC]
Copy OK
Track 4
Filename D:\mp3\x marks the pedwalk - four fit flac\X Marks the Pedwalk - Four Fit (The Singles Collection Part II) - 04 - Facer X-Tremix.wav
Pre-gap length 0:00:00.50
Peak level 96.7 %
Track quality 100.0 %
Test CRC D5A49D65
Copy CRC D5A49D65
Accurately ripped (confidence 7) [D7FEBF55]
Copy OK
Track 5
Filename D:\mp3\x marks the pedwalk - four fit flac\X Marks the Pedwalk - Four Fit (The Singles Collection Part II) - 05 - Paranoid Illusions (Face Edit).wav
Pre-gap length 0:00:00.50
Peak level 99.9 %
Track quality 99.9 %
Test CRC B8437E12
Copy CRC B8437E12
Accurately ripped (confidence 7) [10C8FED4]
Copy OK
Track 6
Filename D:\mp3\x marks the pedwalk - four fit flac\X Marks the Pedwalk - Four Fit (The Singles Collection Part II) - 06 - I See You.wav
Pre-gap length 0:00:00.50
Peak level 100.0 %
Track quality 100.0 %
Test CRC E2F852CE
Copy CRC E2F852CE
Accurately ripped (confidence 7) [958DF623]
Copy OK
Track 7
Filename D:\mp3\x marks the pedwalk - four fit flac\X Marks the Pedwalk - Four Fit (The Singles Collection Part II) - 07 - consciousness.wav
Pre-gap length 0:00:00.50
Peak level 99.6 %
Track quality 99.9 %
Test CRC 38878913
Copy CRC 38878913
Accurately ripped (confidence 7) [37911443]
Copy OK
Track 8
Filename D:\mp3\x marks the pedwalk - four fit flac\X Marks the Pedwalk - Four Fit (The Singles Collection Part II) - 08 - Why .wav
Pre-gap length 0:00:00.50
Peak level 99.4 %
Track quality 100.0 %
Test CRC 3E79B055
Copy CRC 3E79B055
Accurately ripped (confidence 7) [90D179B9]
Copy OK
Track 9
Filename D:\mp3\x marks the pedwalk - four fit flac\X Marks the Pedwalk - Four Fit (The Singles Collection Part II) - 09 - The Trap.wav
Pre-gap length 0:00:00.50
Peak level 99.5 %
Track quality 100.0 %
Test CRC C4ED6D0D
Copy CRC C4ED6D0D
Accurately ripped (confidence 7) [00289217]
Copy OK
Track 10
Filename D:\mp3\x marks the pedwalk - four fit flac\X Marks the Pedwalk - Four Fit (The Singles Collection Part II) - 10 - You Are Out.wav
Pre-gap length 0:00:00.50
Peak level 96.3 %
Track quality 100.0 %
Test CRC E97CC608
Copy CRC E97CC608
Accurately ripped (confidence 7) [15E9191A]
Copy OK
Track 11
Filename D:\mp3\x marks the pedwalk - four fit flac\X Marks the Pedwalk - Four Fit (The Singles Collection Part II) - 11 - Inside.wav
Pre-gap length 0:00:00.50
Peak level 98.3 %
Track quality 100.0 %
Test CRC 2A0051C8
Copy CRC 2A0051C8
Accurately ripped (confidence 7) [34527FDC]
Copy OK
Track 12
Filename D:\mp3\x marks the pedwalk - four fit flac\X Marks the Pedwalk - Four Fit (The Singles Collection Part II) - 12 - Cenotaph.wav
Pre-gap length 0:00:00.50
Peak level 97.7 %
Track quality 100.0 %
Test CRC 5436B906
Copy CRC 5436B906
Accurately ripped (confidence 7) [306EA189]
Copy OK
Track 13
Filename D:\mp3\x marks the pedwalk - four fit flac\X Marks the Pedwalk - Four Fit (The Singles Collection Part II) - 13 - Never Dare to Ask.wav
Pre-gap length 0:00:00.50
Peak level 97.5 %
Track quality 100.0 %
Test CRC 11AAC3BC
Copy CRC 11AAC3BC
Accurately ripped (confidence 7) [B58C39FA]
Copy OK
Track 14
Filename D:\mp3\x marks the pedwalk - four fit flac\X Marks the Pedwalk - Four Fit (The Singles Collection Part II) - 14 - Helpless (Final D.).wav
Pre-gap length 0:00:00.50
Peak level 94.9 %
Track quality 100.0 %
Test CRC F63C7F6B
Copy CRC F63C7F6B
Accurately ripped (confidence 7) [2CECF876]
Copy OK
Track 15
Filename D:\mp3\x marks the pedwalk - four fit flac\X Marks the Pedwalk - Four Fit (The Singles Collection Part II) - 15 - Seclusion.wav
Pre-gap length 0:00:00.50
Peak level 97.2 %
Track quality 100.0 %
Test CRC CAF4347A
Copy CRC CAF4347A
Accurately ripped (confidence 7) [C53C0B3A]
Copy OK
All tracks accurately ripped
No errors occurred
End of status report

Раздаю 24/7
Правила, инструкции, FAQ!!!
Торрент  Добавлен [26 июн 2020, 17:25] Скачать торрент Магнет ссылка
Скачать торрент
[ Размер 17.71 КБ / Просмотров 9 ]

Статус
Проверен 
 
Размер  389.79 МБ
Приватный: Нет (DHT включён)
.torrent скачан  0
 


     Отправить личное сообщение
   
Страница 1 из 1
Показать сообщения за:  Поле сортировки  
Начать новую тему Ответить на тему


Сейчас этот форум просматривают: нет зарегистрированных пользователей и гости: 0


Вы не можете начинать темы
Вы не можете отвечать на сообщения
Вы не можете редактировать свои сообщения
Вы не можете удалять свои сообщения
Вы не можете добавлять вложения

Перейти:  
cron