Начать новую тему Ответить на тему
Статистика раздачи
Размер: 527.74 МБ | Добавлен: 26 июн 2020, 19:52 | Скачали: 0
Сидеров: 0  [0 байт/сек]    Личеров: 0  [0 байт/сек]
Пред. тема | След. тема 

Автор
Сообщение

СообщениеДобавлено: 26 июн 2020, 19:52 

Ответить с цитатой 

X Marks The Pedwalk / Cenotaph
Жанр: EBM
Страна-производитель диска: Germany
Год издания диска: 2009
Издатель (лейбл): Infacted Recordings
Номер по каталогу: FACT3128
Страна: Germany
Аудио кодек: FLAC (*.flac)
Тип рипа: image+.cue
Битрейт аудио: lossless
Продолжительность: 1:13:54.00
Источник (релизер): CD из личной коллекции.
Наличие сканов в содержимом раздачи: да
Треклист:
01. Cenotaph 5:51
02. Never Dare To Ask 3:54
03. Helpless 3:48
04. Seclusion 3:06
05. Paranoid Illusions (Face Edit) 4:38
06. I See You 5:09
07. Consciousness 2:53
08. Why? 3:58
09. The Trap 5:08
10. You Are Out 4:00
11. Inside 2:48
12. Clear Your Mind (The Introduction (Live)) 2:12
13. Paranoid Illusions (Live) 5:23
14. The Trap (Live) 6:41
15. Abattoir (Live) 6:45
16. Dependence 4:00
17. Helpless (Depressed Mix) 4:02
Код:
Exact Audio Copy V0.99 prebeta 5 from 4. May 2009
Отчёт EAC об извлечении, выполненном 19. сентября 2010, 16:27
X Marks the Pedwalk / Cenotaph
Дисковод: TSSTcorpCDDVDW TS-L632H   Adapter: 0  ID: 0
Режим чтения                 : Достоверность
Использование точного потока : Да
Отключение кэша аудио        : Да
Использование указателей C2  : Нет
Коррекция смещения при чтении                     : 6
Способность читать области Lead-in и Lead-out     : Нет
Заполнение пропущенных сэмплов тишиной            : Да
Удаление блоков с тишиной в начале и конце        : Нет
При вычислениях CRC использовались нулевые сэмплы : Да
Интерфейс                                         : Встроенный Win32-интерфейс для Win NT/2000
Выходной формат          : Пользовательский кодировщик
Выбранный битрейт        : 1024 kBit/s
Качество                 : Высокий
Добавление ID3-тэга      : Нет
Утилита сжатия           : C:\Program Files\Exact Audio Copy\FLAC\FLAC.EXE
Дополнительные параметры : -6 -V -T "ARTIST=%a" -T "TITLE=%t" -T "ALBUM=%g" -T "DATE=%y" -T "TRACKNUMBER=%n" -T "GENRE=%m" -T "COMMENT=%e" %s -o %d
TOC извлечённого CD
     Трек |   Старт  | Длительность | Начальный сектор | Конечный сектор
    ---------------------------------------------------------------------
       1  |  0:00.00 |    5:51.09   |           0      |      26333
       2  |  5:51.09 |    3:54.74   |       26334      |      43957
       3  |  9:46.08 |    3:49.59   |       43958      |      61191
       4  | 13:35.67 |    3:06.21   |       61192      |      75162
       5  | 16:42.13 |    4:39.39   |       75163      |      96126
       6  | 21:21.52 |    5:09.70   |       96127      |     119371
       7  | 26:31.47 |    2:53.28   |      119372      |     132374
       8  | 29:25.00 |    3:59.10   |      132375      |     150309
       9  | 33:24.10 |    5:10.00   |      150310      |     173559
      10  | 38:34.10 |    4:00.57   |      173560      |     191616
      11  | 42:34.67 |    2:47.72   |      191617      |     204213
      12  | 45:22.64 |    2:13.37   |      204214      |     214225
      13  | 47:36.26 |    5:23.47   |      214226      |     238497
      14  | 52:59.73 |    6:40.02   |      238498      |     268499
      15  | 59:40.00 |    6:10.31   |      268500      |     296280
      16  | 65:50.31 |    4:00.51   |      296281      |     314331
      17  | 69:51.07 |    4:02.68   |      314332      |     332549
Характеристики диапазона извлечения и сообщения об ошибках
Выбранный диапазон
     Имя файла C:\Users\Алексей\Desktop\iPOD\X Marks the Pedwalk - Cenotaph.wav
     Пиковый уровень 96.6 %
     Качество диапазона 100.0 %
     CRC теста 323B13E2
     CRC копии 323B13E2
     Копирование... OK
Ошибок не произошло
AccurateRip: сводка
Трек  1  точное извлечение (доверие 2)  [7DC87448]
Трек  2  точное извлечение (доверие 2)  [FE4AF56F]
Трек  3  точное извлечение (доверие 2)  [1D3AC0A9]
Трек  4  точное извлечение (доверие 2)  [CCB8ECA6]
Трек  5  точное извлечение (доверие 2)  [7E74402D]
Трек  6  точное извлечение (доверие 2)  [D7BE592F]
Трек  7  точное извлечение (доверие 2)  [32CF4378]
Трек  8  точное извлечение (доверие 2)  [7405C4CE]
Трек  9  точное извлечение (доверие 2)  [DF61C4B3]
Трек 10  точное извлечение (доверие 2)  [54764B2C]
Трек 11  точное извлечение (доверие 2)  [BEC5C32A]
Трек 12  точное извлечение (доверие 2)  [92449CB4]
Трек 13  точное извлечение (доверие 2)  [B50B1B9C]
Трек 14  точное извлечение (доверие 2)  [83E21E73]
Трек 15  точное извлечение (доверие 2)  [B9354FCB]
Трек 16  точное извлечение (доверие 2)  [E640AECA]
Трек 17  точное извлечение (доверие 2)  [CDC004F9]
Все треки извлечены точно
Конец отчёта
Код:
REM GENRE Industrial
REM DATE 2009
REM DISCID FB115211
REM COMMENT ExactAudioCopy v0.99pb5
PERFORMER X Marks the Pedwalk
TITLE Cenotaph
FILE X Marks the Pedwalk - Cenotaph.flac WAVE
  TRACK 01 AUDIO
    TITLE Cenotaph
    PERFORMER X Marks the Pedwalk
    FLAGS DCP
    INDEX 01 000000
  TRACK 02 AUDIO
    TITLE Never Dare to ask
    PERFORMER X Marks the Pedwalk
    FLAGS DCP
    INDEX 00 055009
    INDEX 01 055109
  TRACK 03 AUDIO
    TITLE Helpless
    PERFORMER X Marks the Pedwalk
    FLAGS DCP
    INDEX 00 094508
    INDEX 01 094608
  TRACK 04 AUDIO
    TITLE Seclusion
    PERFORMER X Marks the Pedwalk
    FLAGS DCP
    INDEX 00 133467
    INDEX 01 133567
  TRACK 05 AUDIO
    TITLE Paranoid Illusions (Face Edit)
    PERFORMER X Marks the Pedwalk
    FLAGS DCP
    INDEX 00 164113
    INDEX 01 164213
  TRACK 06 AUDIO
    TITLE I See you
    PERFORMER X Marks the Pedwalk
    FLAGS DCP
    INDEX 00 212052
    INDEX 01 212152
  TRACK 07 AUDIO
    TITLE Consciousness
    PERFORMER X Marks the Pedwalk
    FLAGS DCP
    INDEX 00 263047
    INDEX 01 263147
  TRACK 08 AUDIO
    TITLE Why
    PERFORMER X Marks the Pedwalk
    FLAGS DCP
    INDEX 00 292400
    INDEX 01 292500
  TRACK 09 AUDIO
    TITLE The Trap
    PERFORMER X Marks the Pedwalk
    FLAGS DCP
    INDEX 00 332310
    INDEX 01 332410
  TRACK 10 AUDIO
    TITLE You are out
    PERFORMER X Marks the Pedwalk
    FLAGS DCP
    INDEX 00 383310
    INDEX 01 383410
  TRACK 11 AUDIO
    TITLE Inside
    PERFORMER X Marks the Pedwalk
    FLAGS DCP
    INDEX 00 423367
    INDEX 01 423467
  TRACK 12 AUDIO
    TITLE Clear your mind - the introduction
    PERFORMER X Marks the Pedwalk
    FLAGS DCP
    INDEX 00 452164
    INDEX 01 452264
  TRACK 13 AUDIO
    TITLE Paranoid Illusions (live)
    PERFORMER X Marks the Pedwalk
    FLAGS DCP
    INDEX 00 473526
    INDEX 01 473626
  TRACK 14 AUDIO
    TITLE The Trap (live)
    PERFORMER X Marks the Pedwalk
    FLAGS DCP
    INDEX 00 525873
    INDEX 01 525973
  TRACK 15 AUDIO
    TITLE Abattoir (live)
    PERFORMER X Marks the Pedwalk
    FLAGS DCP
    INDEX 00 593900
    INDEX 01 594000
  TRACK 16 AUDIO
    TITLE Dependence
    PERFORMER X Marks the Pedwalk
    FLAGS DCP
    INDEX 00 654931
    INDEX 01 655031
  TRACK 17 AUDIO
    TITLE Helpless (Depressed Mix)
    PERFORMER X Marks the Pedwalk
    FLAGS DCP
    INDEX 00 695007
    INDEX 01 695107
ОГРОМНАЯ БЛАГОДАРНОСТЬ НАШЕМУ КОЛЛЕГЕ KERGARN`у ЗА СКАНЫ!!!
Правила, инструкции, FAQ!!!
Торрент  Добавлен [26 июн 2020, 19:52] Скачать торрент Магнет ссылка
Скачать торрент
[ Размер 11.23 КБ / Просмотров 2 ]

Статус
Проверен 
 
Размер  527.74 МБ
Приватный: Нет (DHT включён)
.torrent скачан  0
 


     Отправить личное сообщение
   
Страница 1 из 1
Показать сообщения за:  Поле сортировки  
Начать новую тему Ответить на тему


Сейчас этот форум просматривают: нет зарегистрированных пользователей и гости: 0


Вы не можете начинать темы
Вы не можете отвечать на сообщения
Вы не можете редактировать свои сообщения
Вы не можете удалять свои сообщения
Вы не можете добавлять вложения

Перейти:  
cron