Начать новую тему Ответить на тему
Статистика раздачи
Размер: 290.19 МБ | Добавлен: 26 июн 2020, 17:00 | Скачали: 0
Сидеров: 0  [0 байт/сек]    Личеров: 0  [0 байт/сек]
Пред. тема | След. тема 

Автор
Сообщение

СообщениеДобавлено: 26 июн 2020, 17:00 

Ответить с цитатой 

Machine Soldier / Unit One
Жанр: EBM
Страна-производитель диска: Denmark
Год издания диска: 2006
Издатель (лейбл): Idle Works
Номер по каталогу: IDLE0002
Страна: Denmark
Аудио кодек: FLAC (*.flac)
Тип рипа: image+.cue
Битрейт аудио: lossless
Продолжительность: 0:40:24.53
Источник (релизер): CD из личной коллекции.
Наличие сканов в содержимом раздачи: да
Треклист:
01. Morbid Attraction 4:56
02. MachineSoldier 5:37
03. Hacker 5:18
04. Perfect Order 4:49
05. Holy 6:25
06. Need For Strength 3:27
07. March! 5:57
08. Mark 3:52
Код:
Exact Audio Copy V0.99 prebeta 5 from 4. May 2009
Отчёт EAC об извлечении, выполненном 18. декабря 2010, 10:54
Machine Soldier / Unit One
Дисковод: TSSTcorpCDDVDW TS-L632H   Adapter: 0  ID: 0
Режим чтения                 : Достоверность
Использование точного потока : Да
Отключение кэша аудио        : Да
Использование указателей C2  : Нет
Коррекция смещения при чтении                     : 6
Способность читать области Lead-in и Lead-out     : Нет
Заполнение пропущенных сэмплов тишиной            : Да
Удаление блоков с тишиной в начале и конце        : Нет
При вычислениях CRC использовались нулевые сэмплы : Да
Интерфейс                                         : Встроенный Win32-интерфейс для Win NT/2000
Выходной формат          : Пользовательский кодировщик
Выбранный битрейт        : 1024 kBit/s
Качество                 : Высокий
Добавление ID3-тэга      : Нет
Утилита сжатия           : C:\Program Files\Exact Audio Copy\FLAC\FLAC.EXE
Дополнительные параметры : -6 -V -T "ARTIST=%a" -T "TITLE=%t" -T "ALBUM=%g" -T "DATE=%y" -T "TRACKNUMBER=%n" -T "GENRE=%m" -T "COMMENT=%e" %s -o %d
TOC извлечённого CD
     Трек |   Старт  | Длительность | Начальный сектор | Конечный сектор
    ---------------------------------------------------------------------
       1  |  0:00.00 |    4:56.49   |           0      |      22248
       2  |  4:56.49 |    5:37.29   |       22249      |      47552
       3  | 10:34.03 |    5:18.56   |       47553      |      71458
       4  | 15:52.59 |    4:49.61   |       71459      |      93194
       5  | 20:42.45 |    6:25.22   |       93195      |     122091
       6  | 27:07.67 |    3:27.03   |      122092      |     137619
       7  | 30:34.70 |    5:57.43   |      137620      |     164437
       8  | 36:32.38 |    3:52.15   |      164438      |     181852
Характеристики диапазона извлечения и сообщения об ошибках
Выбранный диапазон
     Имя файла C:\Users\Алексей\Desktop\iPOD\Machine Soldier - Unit One.wav
     Пиковый уровень 99.0 %
     Качество диапазона 100.0 %
     CRC теста 1701510B
     CRC копии 1701510B
     Копирование... OK
Ошибок не произошло
AccurateRip: сводка
Трек  1  нет в базе данных
Трек  2  нет в базе данных
Трек  3  нет в базе данных
Трек  4  нет в базе данных
Трек  5  нет в базе данных
Трек  6  нет в базе данных
Трек  7  нет в базе данных
Трек  8  нет в базе данных
Ни одного трека нет в базе AccurateRip
Конец отчёта
Код:
REM GENRE EBM
REM DATE 2006
REM DISCID 75097808
REM COMMENT "ExactAudioCopy v0.99pb5"
PERFORMER "Machine Soldier"
TITLE "Unit One"
FILE "Machine Soldier - Unit One.flac" WAVE
  TRACK 01 AUDIO
    TITLE "Morbid Attraction "
    PERFORMER "Machine Soldier"
    INDEX 01 00:00:00
  TRACK 02 AUDIO
    TITLE "MachineSoldier "
    PERFORMER "Machine Soldier"
    INDEX 00 04:54:49
    INDEX 01 04:56:49
  TRACK 03 AUDIO
    TITLE "Hacker "
    PERFORMER "Machine Soldier"
    INDEX 00 10:32:03
    INDEX 01 10:34:03
  TRACK 04 AUDIO
    TITLE "Perfect Order "
    PERFORMER "Machine Soldier"
    INDEX 00 15:50:59
    INDEX 01 15:52:59
  TRACK 05 AUDIO
    TITLE "Holy "
    PERFORMER "Machine Soldier"
    INDEX 00 20:40:45
    INDEX 01 20:42:45
  TRACK 06 AUDIO
    TITLE "Need for strength"
    PERFORMER "Machine Soldier"
    INDEX 00 27:05:67
    INDEX 01 27:07:67
  TRACK 07 AUDIO
    TITLE "March "
    PERFORMER "Machine Soldier"
    INDEX 00 30:32:70
    INDEX 01 30:34:70
  TRACK 08 AUDIO
    TITLE "Mark"
    PERFORMER "Machine Soldier"
    INDEX 00 36:30:38
    INDEX 01 36:32:38
Код:
[url=https://fastpic.ru/view/12/2011/0115/babafc60e12dd56ddaa7caa4d181a29b.jpg.html][img]http://i12.fastpic.ru/thumb/2011/0115/9b/babafc60e12dd56ddaa7caa4d181a29b.jpeg[/img][/url][url=https://fastpic.ru/view/12/2011/0115/cf46bda5e288603db82be29dbc6cea3c.jpg.html][img]http://i12.fastpic.ru/thumb/2011/0115/3c/cf46bda5e288603db82be29dbc6cea3c.jpeg[/img][/url][url=https://fastpic.ru/view/12/2011/0115/00c82f2a2a9616104bfe52931e55807d.jpg.html][img]http://i12.fastpic.ru/thumb/2011/0115/7d/00c82f2a2a9616104bfe52931e55807d.jpeg[/img][/url][url=https://fastpic.ru/view/12/2011/0115/c9330cfedf61bde0aa1cb2aeecc1696f.jpg.html][img]http://i12.fastpic.ru/thumb/2011/0115/6f/c9330cfedf61bde0aa1cb2aeecc1696f.jpeg[/img][/url]
ОГРОМНАЯ БЛАГОДАРНОСТЬ НАШЕМУ КОЛЛЕГЕ KERGARN`у ЗА СКАНЫ!!!
Правила, инструкции, FAQ!!!
Торрент  Добавлен [26 июн 2020, 17:00] Скачать торрент Магнет ссылка
Скачать торрент
[ Размер 12.39 КБ / Просмотров 3 ]

Статус
Проверен 
 
Размер  290.19 МБ
Приватный: Нет (DHT включён)
.torrent скачан  0
 


     Отправить личное сообщение
   
Страница 1 из 1
Показать сообщения за:  Поле сортировки  
Начать новую тему Ответить на тему


Сейчас этот форум просматривают: нет зарегистрированных пользователей и гости: 0


Вы не можете начинать темы
Вы не можете отвечать на сообщения
Вы не можете редактировать свои сообщения
Вы не можете удалять свои сообщения
Вы не можете добавлять вложения

Перейти:  
cron