Начать новую тему Ответить на тему
Статистика раздачи
Размер: 788.85 МБ | Добавлен: 26 июн 2020, 16:55 | Скачали: 0
Сидеров: 1  [0 байт/сек]    Личеров: 0  [0 байт/сек]
Пред. тема | След. тема 

Автор
Сообщение

СообщениеДобавлено: 26 июн 2020, 16:55 

Ответить с цитатой 

LEÆTHER STRIP - YES I'M LIMITED VI
Жанр: EBM
Страна-производитель диска: GERMANY
Год издания: 2013
Издатель (лейбл): Emmo.biz
Номер по каталогу: ERZ019
Аудиокодек: FLAC (*.flac)
Тип рипа: image+.cue
Битрейт аудио: lossless
Продолжительность: 55:04 + 49:26
Источник (релизер): Собственные CD
Наличие сканов в содержимом раздачи: да
Треклист:
CD1
1. Paranoia Nr13
2. Coming up for air 2013 (Club version)
3. Paranoia Nr13 (Extended version)
4. In broken homes (Club Version)
5. Paranoia Nr13 (Kant Kino Kontrasts)
6. Power trip (Saw to the evil remix by MRDTC)
7. Paranoia Nr13 (Electrauma remix by MRDTC)
8. Paranoia Nr13 (Implant remix)
9. The damaged people (club version)
10. You don't look the same (extended version)
Код:
Exact Audio Copy V1.0 beta 3 from 29. August 2011
Отчёт EAC об извлечении, выполненном 24. июля 2013, 19:56
LEAETHER STRIP / YES I'M LIMITED VI
Дисковод: HL-DT-STDVDRAM GT10N   Adapter: 2  ID: 0
Режим чтения                 : Достоверность
Использование точного потока : Да
Отключение кэша аудио        : Да
Использование указателей C2  : Нет
Коррекция смещения при чтении                     : 102
Способность читать области Lead-in и Lead-out     : Нет
Заполнение пропущенных сэмплов тишиной            : Да
Удаление блоков с тишиной в начале и конце        : Нет
При вычислениях CRC использовались нулевые сэмплы : Да
Интерфейс                                         : Встроенный Win32-интерфейс для Win NT/2000
Выходной формат          : Пользовательский кодировщик
Выбранный битрейт        : 1024 kBit/s
Качество                 : Высокий
Добавление ID3-тега      : Нет
Утилита сжатия           : C:\Program Files\Exact Audio Copy\Flac\flac.exe
Дополнительные параметры : -V -8 %source%
TOC извлечённого CD
     Трек |   Старт  | Длительность | Начальный сектор | Конечный сектор
    ---------------------------------------------------------------------
       1  |  0:00.00 |    4:49.41   |           0      |      21715
       2  |  4:49.41 |    6:20.36   |       21716      |      50251
       3  | 11:10.02 |    6:34.59   |       50252      |      79860
       4  | 17:44.61 |    5:40.54   |       79861      |     105414
       5  | 23:25.40 |    4:58.10   |      105415      |     127774
       6  | 28:23.50 |    3:18.72   |      127775      |     142696
       7  | 31:42.47 |    4:49.13   |      142697      |     164384
       8  | 36:31.60 |    4:24.42   |      164385      |     184226
       9  | 40:56.27 |    6:58.35   |      184227      |     215611
      10  | 47:54.62 |    7:07.53   |      215612      |     247689
Характеристики диапазона извлечения и сообщения об ошибках
Выбранный диапазон
     Имя файла C:\Program Files\Exact Audio Copy\Flac\LEAETHER STRIP - YES I'M LIMITED VI.wav
     Пиковый уровень 100.0 %
     Скорость извлечения 1.9 X
     Качество диапазона 100.0 %
     CRC теста 706399E8
     CRC копии 706399E8
     Копирование... OK
Ошибок не произошло
AccurateRip: сводка
Трек  1  : извлечено точно (доверие 1)  [383565DC]  (AR v2)
Трек  2  : извлечено точно (доверие 1)  [307DEB0E]  (AR v2)
Трек  3  : извлечено точно (доверие 1)  [E0D002AE]  (AR v2)
Трек  4  : извлечено точно (доверие 1)  [99E8C71D]  (AR v2)
Трек  5  : извлечено точно (доверие 1)  [5410CEC8]  (AR v2)
Трек  6  : извлечено точно (доверие 1)  [727D777C]  (AR v2)
Трек  7  : извлечено точно (доверие 1)  [0C3565BD]  (AR v2)
Трек  8  : извлечено точно (доверие 1)  [70A08C13]  (AR v2)
Трек  9  : извлечено точно (доверие 1)  [25825CF0]  (AR v2)
Трек 10  : извлечено точно (доверие 1)  [62DEEBFD]  (AR v2)
Все треки извлечены точно
Конец отчёта
==== Контрольная сумма отчёта 9B0477BB85766D7842C78C4968F714BAEF4C117C13FEB1AF62A6EFC12980581F ====
Треклист:
CD2
1. In broken homes
2. Lord knows I tried (Leaether Strip & Implant)
3. Kiss my Deutschland (Adkey-slowmix)
4. Paranoia Nr13 (Lobotomix by In Absentia)
5. Power trip (Ehron VonAllen Mix)
6. Kiss my Deutschland (Monospore Remix)
7. Power trip (Stereo studio mix by Angst Pop feat. Technomancer)
8. Paranoia Nr13 (Ehron VonAllen Mix)
9. When blood runs dark (club version)
10. Going nowhere (club version)
Код:
Exact Audio Copy V1.0 beta 3 from 29. August 2011
Отчёт EAC об извлечении, выполненном 24. июля 2013, 21:49
LEAETHER STRIP / YES I'M LIMITED VI
Дисковод: HL-DT-STDVDRAM GT10N   Adapter: 2  ID: 0
Режим чтения                 : Достоверность
Использование точного потока : Да
Отключение кэша аудио        : Да
Использование указателей C2  : Нет
Коррекция смещения при чтении                     : 102
Способность читать области Lead-in и Lead-out     : Нет
Заполнение пропущенных сэмплов тишиной            : Да
Удаление блоков с тишиной в начале и конце        : Нет
При вычислениях CRC использовались нулевые сэмплы : Да
Интерфейс                                         : Встроенный Win32-интерфейс для Win NT/2000
Выходной формат          : Пользовательский кодировщик
Выбранный битрейт        : 1024 kBit/s
Качество                 : Высокий
Добавление ID3-тега      : Нет
Утилита сжатия           : C:\Program Files\Exact Audio Copy\Flac\flac.exe
Дополнительные параметры : -V -8 %source%
TOC извлечённого CD
     Трек |   Старт  | Длительность | Начальный сектор | Конечный сектор
    ---------------------------------------------------------------------
       1  |  0:00.00 |    4:59.16   |           0      |      22440
       2  |  4:59.16 |    3:56.26   |       22441      |      40166
       3  |  8:55.42 |    4:25.61   |       40167      |      60102
       4  | 13:21.28 |    4:53.21   |       60103      |      82098
       5  | 18:14.49 |    4:34.00   |       82099      |     102648
       6  | 22:48.49 |    4:59.50   |      102649      |     125123
       7  | 27:48.24 |    3:29.32   |      125124      |     140830
       8  | 31:17.56 |    4:34.61   |      140831      |     161441
       9  | 35:52.42 |    6:57.39   |      161442      |     192755
      10  | 42:50.06 |    6:34.58   |      192756      |     222363
Характеристики диапазона извлечения и сообщения об ошибках
Выбранный диапазон
     Имя файла C:\Program Files\Exact Audio Copy\Flac\LEAETHER STRIP - YES I'M LIMITED VI.wav
     Пиковый уровень 100.0 %
     Скорость извлечения 1.8 X
     Качество диапазона 100.0 %
     CRC теста 6D805956
     CRC копии 6D805956
     Копирование... OK
Ошибок не произошло
AccurateRip: сводка
Трек  1  : извлечено точно (доверие 1)  [FC1C70F0]  (AR v2)
Трек  2  : извлечено точно (доверие 1)  [430CB225]  (AR v2)
Трек  3  : извлечено точно (доверие 1)  [E89D339C]  (AR v2)
Трек  4  : извлечено точно (доверие 1)  [A97C58EE]  (AR v2)
Трек  5  : извлечено точно (доверие 1)  [9C0A1D77]  (AR v2)
Трек  6  : извлечено точно (доверие 1)  [D4BDC77A]  (AR v2)
Трек  7  : извлечено точно (доверие 1)  [F0F62039]  (AR v2)
Трек  8  : извлечено точно (доверие 1)  [4C19EA4C]  (AR v2)
Трек  9  : извлечено точно (доверие 1)  [542720C1]  (AR v2)
Трек 10  : извлечено точно (доверие 1)  [32CD2891]  (AR v2)
Все треки извлечены точно
Конец отчёта
==== Контрольная сумма отчёта B528613E37461385EFD255E4352CFDEC468E11433F19EA1ED9E2D397A3CDF284 ====
Правила, инструкции, FAQ!!!
Торрент  Добавлен [26 июн 2020, 16:55] Скачать торрент Магнет ссылка
Скачать торрент
[ Размер 16.58 КБ / Просмотров 6 ]

Статус
Проверен 
 
Размер  788.85 МБ
Приватный: Нет (DHT включён)
.torrent скачан  0
 


     Отправить личное сообщение
   
Страница 1 из 1
Показать сообщения за:  Поле сортировки  
Начать новую тему Ответить на тему


Сейчас этот форум просматривают: нет зарегистрированных пользователей и гости: 0


Вы не можете начинать темы
Вы не можете отвечать на сообщения
Вы не можете редактировать свои сообщения
Вы не можете удалять свои сообщения
Вы не можете добавлять вложения

Перейти:  
cron