Начать новую тему Ответить на тему
Статистика раздачи
Размер: 1.09 ГБ | Добавлен: 26 июн 2020, 17:29 | Скачали: 0
Сидеров: 0  [0 байт/сек]    Личеров: 0  [0 байт/сек]
Пред. тема | След. тема 

Автор
Сообщение

СообщениеДобавлено: 26 июн 2020, 17:29 

Ответить с цитатой 

LEÆTHER STRIP - YES I'M LIMITED V
Жанр: EBM
Страна-производитель диска: Бельгия
Год издания: 2009
Издатель (лейбл): Alfa Matrix
Номер по каталогу: AM1144DCD
Аудиокодек: FLAC (*.flac)
Тип рипа: image+.cue
Битрейт аудио: lossless
Продолжительность: 75:30+73:28
Источник (релизер): Собственные CD
Наличие сканов в содержимом раздачи: да
Треклист:
CD1 [compassion]
1. Compassion (Quan Yin Edit)
2. Love me or die
3. The bears aren't sleeping tonight
4. The Battle of Cologne
5. Its who I am
6. Almost too much
7. Æighty Æight (US mix)
8. Kill a fætish
9. Don't tame your soul (new version)
10. Fluidity (tribute to J.M.Jarre)
11. Der Heizer (feat. RUMMELSNUFF)
12. Gothenburg Noir
Код:
Exact Audio Copy V1.0 beta 3 from 29. August 2011
Отчёт EAC об извлечении, выполненном 13. сентября 2012, 16:30
Leaether Strip / Compassion
Дисковод: HL-DT-STDVDRAM GT10N   Adapter: 2  ID: 0
Режим чтения                 : Достоверность
Использование точного потока : Да
Отключение кэша аудио        : Да
Использование указателей C2  : Нет
Коррекция смещения при чтении                     : 102
Способность читать области Lead-in и Lead-out     : Нет
Заполнение пропущенных сэмплов тишиной            : Да
Удаление блоков с тишиной в начале и конце        : Нет
При вычислениях CRC использовались нулевые сэмплы : Да
Интерфейс                                         : Встроенный Win32-интерфейс для Win NT/2000
Выходной формат          : Пользовательский кодировщик
Выбранный битрейт        : 1024 kBit/s
Качество                 : Высокий
Добавление ID3-тега      : Нет
Утилита сжатия           : C:\Program Files\Exact Audio Copy\Flac\flac.exe
Дополнительные параметры : -V -8 %source%
TOC извлечённого CD
     Трек |   Старт  | Длительность | Начальный сектор | Конечный сектор
    ---------------------------------------------------------------------
       1  |  0:00.00 |    7:33.23   |           0      |      33997
       2  |  7:33.23 |    5:30.45   |       33998      |      58792
       3  | 13:03.68 |    5:07.37   |       58793      |      81854
       4  | 18:11.30 |    5:21.33   |       81855      |     105962
       5  | 23:32.63 |    4:49.70   |      105963      |     127707
       6  | 28:22.58 |    4:41.61   |      127708      |     148843
       7  | 33:04.44 |    7:33.68   |      148844      |     182886
       8  | 40:38.37 |   10:39.15   |      182887      |     230826
       9  | 51:17.52 |    8:24.50   |      230827      |     268676
      10  | 59:42.27 |    6:12.57   |      268677      |     296633
      11  | 65:55.09 |    5:28.31   |      296634      |     321264
      12  | 71:23.40 |    4:04.56   |      321265      |     339620
Характеристики диапазона извлечения и сообщения об ошибках
Выбранный диапазон
     Имя файла C:\Program Files\Exact Audio Copy\Flac\Leaether Strip - Compassion.wav
     Пиковый уровень 100.0 %
     Скорость извлечения 2.1 X
     Качество диапазона 99.9 %
     CRC теста DB5256A8
     CRC копии DB5256A8
     Копирование... OK
Ошибок не произошло
AccurateRip: сводка
Трек  1  : извлечено точно (доверие 3)  [5BD158A0]  (AR v1)
Трек  2  : извлечено точно (доверие 3)  [EE860687]  (AR v1)
Трек  3  : извлечено точно (доверие 3)  [28195DB5]  (AR v1)
Трек  4  : извлечено точно (доверие 3)  [506249D0]  (AR v1)
Трек  5  : извлечено точно (доверие 3)  [CC9E0F27]  (AR v1)
Трек  6  : извлечено точно (доверие 3)  [D40C5F1F]  (AR v1)
Трек  7  : извлечено точно (доверие 3)  [C1B67292]  (AR v1)
Трек  8  : извлечено точно (доверие 3)  [F719128D]  (AR v1)
Трек  9  : извлечено точно (доверие 3)  [8B70A8EB]  (AR v1)
Трек 10  : извлечено точно (доверие 3)  [F785D6DB]  (AR v1)
Трек 11  : извлечено точно (доверие 3)  [6911DB22]  (AR v1)
Трек 12  : извлечено точно (доверие 3)  [B6D50027]  (AR v1)
Все треки извлечены точно
Конец отчёта
==== Контрольная сумма отчёта BEC0D148F14551246FC399B5FAB99B553BF04A3180CCDE13B74ECD0D0451F49C ====
CD2 [the teenage demo's]
1. Dreaming (First version)
2. Do the dance
3. Don't leave me
4. Dreaming (2nd version)
5. Complaining
6. Way out in the blue
7. You don't look the same to me (Instrumental)
8. Northern boy
9. Never trust anyone at the carnival
BONUS TRACKS:
10. Genetic fuckup (DIE KRUPPS remix)
11. Don't tame your soul (TITANS remix)
12. Strap me down (PROJECT PITCHFORK remix)
13. Don't tame your soul (AUTODAFEH remix)
14. We are dust (NETZ remix)
15. We are dust (LOGIC EATS REALITY remix)
Код:
Exact Audio Copy V1.0 beta 3 from 29. August 2011
Отчёт EAC об извлечении, выполненном 13. сентября 2012, 18:23
Leaether Strip / The Teenage Demo's
Дисковод: HL-DT-STDVDRAM GT10N   Adapter: 2  ID: 0
Режим чтения                 : Достоверность
Использование точного потока : Да
Отключение кэша аудио        : Да
Использование указателей C2  : Нет
Коррекция смещения при чтении                     : 102
Способность читать области Lead-in и Lead-out     : Нет
Заполнение пропущенных сэмплов тишиной            : Да
Удаление блоков с тишиной в начале и конце        : Нет
При вычислениях CRC использовались нулевые сэмплы : Да
Интерфейс                                         : Встроенный Win32-интерфейс для Win NT/2000
Выходной формат          : Пользовательский кодировщик
Выбранный битрейт        : 1024 kBit/s
Качество                 : Высокий
Добавление ID3-тега      : Нет
Утилита сжатия           : C:\Program Files\Exact Audio Copy\Flac\flac.exe
Дополнительные параметры : -V -8 %source%
TOC извлечённого CD
     Трек |   Старт  | Длительность | Начальный сектор | Конечный сектор
    ---------------------------------------------------------------------
       1  |  0:00.00 |    4:19.21   |           0      |      19445
       2  |  4:19.21 |    4:47.67   |       19446      |      41037
       3  |  9:07.13 |    6:36.66   |       41038      |      70803
       4  | 15:44.04 |    4:17.13   |       70804      |      90091
       5  | 20:01.17 |    4:44.44   |       90092      |     111435
       6  | 24:45.61 |    4:11.61   |      111436      |     130321
       7  | 28:57.47 |    4:13.27   |      130322      |     149323
       8  | 33:10.74 |    4:57.12   |      149324      |     171610
       9  | 38:08.11 |    4:33.46   |      171611      |     192131
      10  | 42:41.57 |    4:10.64   |      192132      |     210945
      11  | 46:52.46 |    6:06.41   |      210946      |     238436
      12  | 52:59.12 |    6:02.01   |      238437      |     265587
      13  | 59:01.13 |    5:08.24   |      265588      |     288711
      14  | 64:09.37 |    4:16.74   |      288712      |     307985
      15  | 68:26.36 |    4:59.69   |      307986      |     330479
Характеристики диапазона извлечения и сообщения об ошибках
Выбранный диапазон
     Имя файла C:\Program Files\Exact Audio Copy\Flac\Leaether Strip - The Teenage Demo's.wav
     Пиковый уровень 100.0 %
     Скорость извлечения 1.9 X
     Качество диапазона 99.9 %
     CRC теста 15316983
     CRC копии 15316983
     Копирование... OK
Ошибок не произошло
AccurateRip: сводка
Трек  1  : извлечено точно (доверие 3)  [72A67D01]  (AR v1)
Трек  2  : извлечено точно (доверие 3)  [7A8BF6EB]  (AR v1)
Трек  3  : извлечено точно (доверие 3)  [F4E01CFD]  (AR v1)
Трек  4  : извлечено точно (доверие 3)  [DC3046BA]  (AR v1)
Трек  5  : извлечено точно (доверие 3)  [1998FF85]  (AR v1)
Трек  6  : извлечено точно (доверие 3)  [01C66137]  (AR v1)
Трек  7  : извлечено точно (доверие 3)  [F794BB18]  (AR v1)
Трек  8  : извлечено точно (доверие 3)  [A48E3561]  (AR v1)
Трек  9  : извлечено точно (доверие 3)  [857E3A3D]  (AR v1)
Трек 10  : извлечено точно (доверие 3)  [297F135B]  (AR v1)
Трек 11  : извлечено точно (доверие 3)  [63ADC235]  (AR v1)
Трек 12  : извлечено точно (доверие 3)  [8F562DA5]  (AR v1)
Трек 13  : извлечено точно (доверие 3)  [2D2A9492]  (AR v1)
Трек 14  : извлечено точно (доверие 3)  [3E0C5BC3]  (AR v1)
Трек 15  : извлечено точно (доверие 2)  [0D17DF90]  (AR v1)
Все треки извлечены точно
Конец отчёта
==== Контрольная сумма отчёта 6A6B52AFB8DDF50A78745CE539ACCAE37321E56526955AF521B4E782E127572A ====
Правила, инструкции, FAQ!!!
Торрент  Добавлен [26 июн 2020, 17:29] Скачать торрент Магнет ссылка
Скачать торрент
[ Размер 12.59 КБ / Просмотров 4 ]

Статус
Проверен 
 
Размер  1.09 ГБ
Приватный: Нет (DHT включён)
.torrent скачан  0
 


     Отправить личное сообщение
   
Страница 1 из 1
Показать сообщения за:  Поле сортировки  
Начать новую тему Ответить на тему


Сейчас этот форум просматривают: нет зарегистрированных пользователей и гости: 0


Вы не можете начинать темы
Вы не можете отвечать на сообщения
Вы не можете редактировать свои сообщения
Вы не можете удалять свои сообщения
Вы не можете добавлять вложения

Перейти:  
cron