Начать новую тему Ответить на тему
Статистика раздачи
Размер: 247.36 МБ | Добавлен: 26 июн 2020, 17:25 | Скачали: 0
Сидеров: 2  [0 байт/сек]    Личеров: 0  [0 байт/сек]
Пред. тема | След. тема 

Автор
Сообщение

СообщениеДобавлено: 26 июн 2020, 17:25 

Ответить с цитатой 

Leaether Strip (Leæther Strip) / Suicide Bombers EP
Жанр: EBM
Страна-производитель диска: Belgium
Год издания диска: 2005
Издатель (лейбл): Alfa Matrix
Номер по каталогу: am1061epcd
Страна: Denmark
Аудио кодек: FLAC (*.flac)
Тип рипа: image+.cue
Битрейт аудио: lossless
Продолжительность: 0:37:29.22
Источник (релизер): CD из личной коллекции.
Наличие сканов в содержимом раздачи: нет
Треклист:
01. Suicide Bombers 4:42
02. Suicide Bombers (12 Inch Version) 4:43
03. The Shame Of A Nation (Part I & II) 5:25
04. This Is Where I Wanna Be 5:28
05. Death Is Walking Next To Me 5:11
06. Til Far 6:21
07. Reborn 5:36
Код:
Exact Audio Copy V0.99 prebeta 5 from 4. May 2009
Отчёт EAC об извлечении, выполненном 24. октября 2010, 18:10
Leaether Strip / Suicide Bombers EP
Дисковод: TSSTcorpCDDVDW TS-L632H   Adapter: 0  ID: 0
Режим чтения                 : Достоверность
Использование точного потока : Да
Отключение кэша аудио        : Да
Использование указателей C2  : Нет
Коррекция смещения при чтении                     : 6
Способность читать области Lead-in и Lead-out     : Нет
Заполнение пропущенных сэмплов тишиной            : Да
Удаление блоков с тишиной в начале и конце        : Нет
При вычислениях CRC использовались нулевые сэмплы : Да
Интерфейс                                         : Встроенный Win32-интерфейс для Win NT/2000
Выходной формат          : Пользовательский кодировщик
Выбранный битрейт        : 1024 kBit/s
Качество                 : Высокий
Добавление ID3-тэга      : Нет
Утилита сжатия           : C:\Program Files\Exact Audio Copy\FLAC\FLAC.EXE
Дополнительные параметры : -6 -V -T "ARTIST=%a" -T "TITLE=%t" -T "ALBUM=%g" -T "DATE=%y" -T "TRACKNUMBER=%n" -T "GENRE=%m" -T "COMMENT=%e" %s -o %d
TOC извлечённого CD
     Трек |   Старт  | Длительность | Начальный сектор | Конечный сектор
    ---------------------------------------------------------------------
       1  |  0:00.00 |    4:42.60   |           0      |      21209
       2  |  4:42.60 |    4:43.11   |       21210      |      42445
       3  |  9:25.71 |    5:25.45   |       42446      |      66865
       4  | 14:51.41 |    5:28.65   |       66866      |      91530
       5  | 20:20.31 |    5:11.22   |       91531      |     114877
       6  | 25:31.53 |    6:21.13   |      114878      |     143465
       7  | 31:52.66 |    5:36.31   |      143466      |     168696
Характеристики диапазона извлечения и сообщения об ошибках
Выбранный диапазон
     Имя файла C:\Users\Алексей\Desktop\iPOD\Leaether Strip - Suicide Bombers EP.wav
     Пиковый уровень 100.0 %
     Качество диапазона 100.0 %
     CRC теста 366704FC
     CRC копии 366704FC
     Копирование... OK
Ошибок не произошло
AccurateRip: сводка
Трек  1  точное извлечение (доверие 4)  [80139539]
Трек  2  точное извлечение (доверие 4)  [2BFD67C0]
Трек  3  точное извлечение (доверие 4)  [818B3D7B]
Трек  4  точное извлечение (доверие 4)  [AB2644A8]
Трек  5  точное извлечение (доверие 4)  [38BE9E5E]
Трек  6  точное извлечение (доверие 4)  [0C4DACD1]
Трек  7  точное извлечение (доверие 4)  [2E67AE7F]
Все треки извлечены точно
Конец отчёта
Код:
REM GENRE Electronic
REM DATE 2005
REM DISCID 5808C907
REM COMMENT "ExactAudioCopy v0.99pb5"
PERFORMER "Leaether Strip"
TITLE "Suicide Bombers EP"
FILE "Leaether Strip - Suicide Bombers EP.flac" WAVE
  TRACK 01 AUDIO
    TITLE "Suicide Bombers"
    PERFORMER "Leaether Strip"
    INDEX 01 00:00:00
  TRACK 02 AUDIO
    TITLE "Suicide Bombers (12 Inch Version)"
    PERFORMER "Leaether Strip"
    INDEX 00 04:40:69
    INDEX 01 04:42:60
  TRACK 03 AUDIO
    TITLE "The Shame of the Nation (Part I & II)"
    PERFORMER "Leaether Strip"
    INDEX 00 09:23:72
    INDEX 01 09:25:71
  TRACK 04 AUDIO
    TITLE "This is Where I Wanna Be"
    PERFORMER "Leaether Strip"
    INDEX 00 14:49:42
    INDEX 01 14:51:41
  TRACK 05 AUDIO
    TITLE "Death is Walking Next to Me"
    PERFORMER "Leaether Strip"
    INDEX 00 20:18:45
    INDEX 01 20:20:31
  TRACK 06 AUDIO
    TITLE "Til Far"
    PERFORMER "Leaether Strip"
    INDEX 00 25:29:69
    INDEX 01 25:31:53
  TRACK 07 AUDIO
    TITLE "Reborn"
    PERFORMER "Leaether Strip"
    INDEX 00 31:51:00
    INDEX 01 31:52:66
Код:
[url=https://fastpic.ru/view/5/2010/1024/0a639262ba8c4c2c989e46c6d6457555.jpg.html][img]http://i5.fastpic.ru/thumb/2010/1024/55/0a639262ba8c4c2c989e46c6d6457555.jpeg[/img][/url]
Правила, инструкции, FAQ!!!
Торрент  Добавлен [26 июн 2020, 17:25] Скачать торрент Магнет ссылка
Скачать торрент
[ Размер 20.13 КБ / Просмотров 14 ]

Статус
Проверен 
 
Размер  247.36 МБ
Приватный: Нет (DHT включён)
.torrent скачан  0
 


     Отправить личное сообщение
   
Страница 1 из 1
Показать сообщения за:  Поле сортировки  
Начать новую тему Ответить на тему


Сейчас этот форум просматривают: нет зарегистрированных пользователей и гости: 0


Вы не можете начинать темы
Вы не можете отвечать на сообщения
Вы не можете редактировать свои сообщения
Вы не можете удалять свои сообщения
Вы не можете добавлять вложения

Перейти:  
cron