Начать новую тему Ответить на тему
Статистика раздачи
Размер: 411.44 МБ | Добавлен: 26 июн 2020, 20:46 | Скачали: 1
Сидеров: 0  [0 байт/сек]    Личеров: 0  [0 байт/сек]
Пред. тема | След. тема 

Автор
Сообщение

СообщениеДобавлено: 26 июн 2020, 20:46 

Ответить с цитатой 

Leaether Strip - Solitary Confinement
Жанр: EBM
Год выпуска диска: 1993
Производитель диска: USA
Трэклист:
1. Mortal Thoughts
2. Strap Me Down
3. I Am Your Conscience
4. Nothing Seen Nothing Done
5. The Dance Of Deception
6. Evil Speaks
7. Adrenalin Rush
8. Crash Flight 232-92
9. Croatia
10. Red Meat Attraction
11. Jantes Revenge
12. Antius [psycho strip edit]
Доп. информация:
Exact Audio Copy V0.99 prebeta 4 from 23. January 2008
Отчёт EAC об извлечении, выполненном 8. ноября 2008, 0:59
Leжther Strip / Solitary Confinement
Дисковод: Optiarc DVD RW AD-7173A Adapter: 4 ID: 0
Режим чтения : Достоверность
Использование точного потока : Да
Отключение кэша аудио : Да
Использование указателей C2 : Нет
Коррекция смещения при чтении : 48
Способность читать области Lead-in и Lead-out : Нет
Заполнение пропущенных сэмплов тишиной : Да
Удаление блоков с тишиной в начале и конце : Нет
При вычислениях CRC использовались нулевые сэмплы : Да
Интерфейс : Установленный внешний ASPI-интерфейс
Обработка зазоров : Добавлено к предыдущему треку
Выходной формат : Пользовательский кодировщик
Выбранный битрейт : 192 kBit/s
Качество : Высокий
Добавление ID3-тэга : Нет
Утилита сжатия : C:\Program Files\Exact Audio Copy\Flac\flac.exe
Дополнительные параметры : -8 -V -T "ARTIST=%a" -T "TITLE=%t" -T "ALBUM=%g" -T "DATE=%y" -T "TRACKNUMBER=%n" -T "GENRE=%m" -T "COMMENT=%e" %s -o %d
TOC извлечённого CD
Трек | Старт | Длительность | Начальный сектор | Конечный сектор
---------------------------------------------------------------------
1 | 0:00.00 | 5:22.00 | 0 | 24149
2 | 5:22.00 | 5:36.00 | 24150 | 49349
3 | 10:58.00 | 4:43.00 | 49350 | 70574
4 | 15:41.00 | 4:52.00 | 70575 | 92474
5 | 20:33.00 | 3:28.50 | 92475 | 108124
6 | 24:01.50 | 3:51.00 | 108125 | 125449
7 | 27:52.50 | 5:04.25 | 125450 | 148274
8 | 32:57.00 | 4:55.00 | 148275 | 170399
9 | 37:52.00 | 6:21.00 | 170400 | 198974
10 | 44:13.00 | 6:00.25 | 198975 | 225999
11 | 50:13.25 | 4:09.50 | 226000 | 244724
12 | 54:23.00 | 6:24.42 | 244725 | 273566
Трек 1
Имя файла E:\FLAC\Leжther Strip - Solitary Confinement(1993)\01 - Leжther Strip - Mortal Thoughts .wav
Длина предзазора 0:00:02.00
Пиковый уровень 96.3 %
Качество трека 100.0 %
CRC теста 2DE8F9C6
CRC копии 2DE8F9C6
Копирование... OK
Трек 2
Имя файла E:\FLAC\Leжther Strip - Solitary Confinement(1993)\02 - Leжther Strip - Strap Me Down .wav
Длина предзазора 0:00:01.92
Пиковый уровень 99.0 %
Качество трека 100.0 %
CRC теста 9104891D
CRC копии 9104891D
Копирование... OK
Трек 3
Имя файла E:\FLAC\Leжther Strip - Solitary Confinement(1993)\03 - Leжther Strip - I Am Your Conscience .wav
Длина предзазора 0:00:01.64
Пиковый уровень 96.2 %
Качество трека 100.0 %
CRC теста 23A43DA0
CRC копии 23A43DA0
Копирование... OK
Трек 4
Имя файла E:\FLAC\Leжther Strip - Solitary Confinement(1993)\04 - Leжther Strip - Nothing Seen - Nothing Done .wav
Длина предзазора 0:00:01.82
Пиковый уровень 97.1 %
Качество трека 100.0 %
CRC теста 44CE6BA8
CRC копии 44CE6BA8
Копирование... OK
Трек 5
Имя файла E:\FLAC\Leжther Strip - Solitary Confinement(1993)\05 - Leжther Strip - The Dance Of Deception .wav
Длина предзазора 0:00:01.50
Пиковый уровень 97.6 %
Качество трека 100.0 %
CRC теста 5895E878
CRC копии 5895E878
Копирование... OK
Трек 6
Имя файла E:\FLAC\Leжther Strip - Solitary Confinement(1993)\06 - Leжther Strip - Evil Speaks .wav
Длина предзазора 0:00:01.36
Пиковый уровень 95.5 %
Качество трека 100.0 %
CRC теста 66E38169
CRC копии 66E38169
Копирование... OK
Трек 7
Имя файла E:\FLAC\Leжther Strip - Solitary Confinement(1993)\07 - Leжther Strip - Adrenaline Rush .wav
Длина предзазора 0:00:01.09
Пиковый уровень 97.4 %
Качество трека 100.0 %
CRC теста FFCF2402
CRC копии FFCF2402
Копирование... OK
Трек 8
Имя файла E:\FLAC\Leжther Strip - Solitary Confinement(1993)\08 - Leжther Strip - Crash Flight 232,92 .wav
Длина предзазора 0:00:01.26
Пиковый уровень 97.1 %
Качество трека 99.9 %
CRC теста 1BCF5388
CRC копии 1BCF5388
Копирование... OK
Трек 9
Имя файла E:\FLAC\Leжther Strip - Solitary Confinement(1993)\09 - Leжther Strip - Croatia .wav
Длина предзазора 0:00:01.81
Пиковый уровень 96.4 %
Качество трека 99.9 %
CRC теста 8C953FC7
CRC копии 8C953FC7
Копирование... OK
Трек 10
Имя файла E:\FLAC\Leжther Strip - Solitary Confinement(1993)\10 - Leжther Strip - Red Meat Attraction .wav
Длина предзазора 0:00:01.40
Пиковый уровень 96.6 %
Качество трека 99.9 %
CRC теста 68D1752E
CRC копии 68D1752E
Копирование... OK
Трек 11
Имя файла E:\FLAC\Leжther Strip - Solitary Confinement(1993)\11 - Leжther Strip - Jantes Revenge .wav
Длина предзазора 0:00:01.29
Пиковый уровень 94.8 %
Качество трека 100.0 %
CRC теста BB4FAB15
CRC копии BB4FAB15
Копирование... OK
Трек 12
Имя файла E:\FLAC\Leжther Strip - Solitary Confinement(1993)\12 - Leжther Strip - Antius (Psycho Strip Edit) .wav
Длина предзазора 0:00:01.56
Пиковый уровень 95.0 %
Качество трека 99.9 %
CRC теста F46D8D12
CRC копии F46D8D12
Копирование... OK
Ошибок не произошло
Конец отчёта
Правила, инструкции, FAQ!!!
Торрент  Добавлен [26 июн 2020, 20:46] Скачать торрент Магнет ссылка
Скачать торрент
[ Размер 17.67 КБ / Просмотров 8 ]

Статус
Проверен 
 
Размер  411.44 МБ
Приватный: Нет (DHT включён)
.torrent скачан  1
 


     Отправить личное сообщение
   
Страница 1 из 1
Показать сообщения за:  Поле сортировки  
Начать новую тему Ответить на тему


Сейчас этот форум просматривают: нет зарегистрированных пользователей и гости: 0


Вы не можете начинать темы
Вы не можете отвечать на сообщения
Вы не можете редактировать свои сообщения
Вы не можете удалять свои сообщения
Вы не можете добавлять вложения

Перейти:  
cron