Начать новую тему Ответить на тему
Статистика раздачи
Размер: 1.1 ГБ | Добавлен: 26 июн 2020, 20:12 | Скачали: 0
Сидеров: 0  [0 байт/сек]    Личеров: 0  [0 байт/сек]
Пред. тема | След. тема 

Автор
Сообщение

СообщениеДобавлено: 26 июн 2020, 20:12 

Ответить с цитатой 

Leæther Strip - Æscapism
Жанр: EBM
Носитель: CD
Страна-производитель диска: Germany
Год издания: 2014
Издатель (лейбл): Emmo.biz
Номер по каталогу: EZR 046
Аудиокодек: FLAC (*.flac)
Тип рипа: image+.cue
Битрейт аудио: lossless
Продолжительность: 76:37+76:09
Источник (релизер): Собственные диски
Наличие сканов в содержимом раздачи: да
Треклист:
CD 1
1 We Fail We Forget
2 Sanctuary
3 Hold Me
4 Humanity - Equality
5 Hold Your Fire
6 Suicide Summer School
7 The Hired Man
8 Strong Boys
9 Trash Talker
10 In Fire On Fire
11 Unhuman Response
12 I'm Not The One
13 The Dark Gates Of Sundown
14 It Doesn't Hurt To Hurt You
15 Extinction Protocol (With Decoded Feedback)
Код:
Exact Audio Copy V1.0 beta 3 from 29. August 2011
Отчёт EAC об извлечении, выполненном 21. апреля 2014, 14:32
Leaether Strip / AEscapism
Дисковод: HL-DT-STDVDRAM GT10N   Adapter: 2  ID: 0
Режим чтения                 : Достоверность
Использование точного потока : Да
Отключение кэша аудио        : Да
Использование указателей C2  : Нет
Коррекция смещения при чтении                     : 102
Способность читать области Lead-in и Lead-out     : Нет
Заполнение пропущенных сэмплов тишиной            : Да
Удаление блоков с тишиной в начале и конце        : Нет
При вычислениях CRC использовались нулевые сэмплы : Да
Интерфейс                                         : Встроенный Win32-интерфейс для Win NT/2000
Выходной формат          : Пользовательский кодировщик
Выбранный битрейт        : 1024 kBit/s
Качество                 : Высокий
Добавление ID3-тега      : Нет
Утилита сжатия           : C:\Program Files\Exact Audio Copy\Flac\flac.exe
Дополнительные параметры : -V -8 %source%
TOC извлечённого CD
     Трек |   Старт  | Длительность | Начальный сектор | Конечный сектор
    ---------------------------------------------------------------------
       1  |  0:00.00 |    5:51.58   |           0      |      26382
       2  |  5:51.58 |    6:31.16   |       26383      |      55723
       3  | 12:22.74 |    4:13.55   |       55724      |      74753
       4  | 16:36.54 |    5:27.68   |       74754      |      99346
       5  | 22:04.47 |    5:27.63   |       99347      |     123934
       6  | 27:32.35 |    3:53.13   |      123935      |     141422
       7  | 31:25.48 |    6:00.12   |      141423      |     168434
       8  | 37:25.60 |    3:45.69   |      168435      |     185378
       9  | 41:11.54 |    5:20.36   |      185379      |     209414
      10  | 46:32.15 |    4:28.33   |      209415      |     229547
      11  | 51:00.48 |    5:07.69   |      229548      |     252641
      12  | 56:08.42 |    6:13.38   |      252642      |     280654
      13  | 62:22.05 |    5:41.00   |      280655      |     306229
      14  | 68:03.05 |    3:27.52   |      306230      |     321806
      15  | 71:30.57 |    5:05.00   |      321807      |     344681
Характеристики диапазона извлечения и сообщения об ошибках
Выбранный диапазон
     Имя файла C:\Program Files\Exact Audio Copy\Flac\Leaether Strip - AEscapism.wav
     Пиковый уровень 100.0 %
     Скорость извлечения 1.1 X
     Качество диапазона 99.9 %
     CRC теста 253F0293
     CRC копии 253F0293
     Копирование... OK
Ошибок не произошло
AccurateRip: сводка
Трек  1  отсутствует в базе данных
Трек  2  отсутствует в базе данных
Трек  3  отсутствует в базе данных
Трек  4  отсутствует в базе данных
Трек  5  отсутствует в базе данных
Трек  6  отсутствует в базе данных
Трек  7  отсутствует в базе данных
Трек  8  отсутствует в базе данных
Трек  9  отсутствует в базе данных
Трек 10  отсутствует в базе данных
Трек 11  отсутствует в базе данных
Трек 12  отсутствует в базе данных
Трек 13  отсутствует в базе данных
Трек 14  отсутствует в базе данных
Трек 15  отсутствует в базе данных
Ни одного трека нет в базе AccurateRip
Конец отчёта
==== Контрольная сумма отчёта D658658FDD1FF9C6E9FEBB0A212C0152EB4CE4C2668314A1A24A9CDE785B1DFA ====
CD 2
1 In Fire On Fire (Monospore Remix)
2 Hold Me (Amnistia Modification Feat. Tino Claus)
3 We Fail We Forget (Neotek Remix)
4 Powertrip (Die Krupps Remix)
5 In Fire On Fire (Adkey Remix)
6 Hold Me (Decoded Feedback Remix)
7 We Fail We Forget (Overlook Dub By Needle Sharing)
8 In Fire On Fire (Enter And Fall Remix)
9 Hold Me (K-Bereit Remix)
10 In Fire On Fire (Decoded Feedback Remix)
11 We Fail We Forget (XP8 Remix)
12 Hold Me (Para Normal Club Mix)
13 In Fire On Fire (Pyromix By In Absentia)
14 Hold Me (Puppet Pusher Mix)
15 Hold Me (Vaylon Mix)
16 We Fail We Forget (Wrong Prophet Remix By Betamorphose)
17 Hold Me (Cryo Remix)
Код:
Exact Audio Copy V1.0 beta 3 from 29. August 2011
Отчёт EAC об извлечении, выполненном 21. апреля 2014, 17:04
Leaether Strip / AEscapism
Дисковод: HL-DT-STDVDRAM GT10N   Adapter: 2  ID: 0
Режим чтения                 : Достоверность
Использование точного потока : Да
Отключение кэша аудио        : Да
Использование указателей C2  : Нет
Коррекция смещения при чтении                     : 102
Способность читать области Lead-in и Lead-out     : Нет
Заполнение пропущенных сэмплов тишиной            : Да
Удаление блоков с тишиной в начале и конце        : Нет
При вычислениях CRC использовались нулевые сэмплы : Да
Интерфейс                                         : Встроенный Win32-интерфейс для Win NT/2000
Выходной формат          : Пользовательский кодировщик
Выбранный битрейт        : 1024 kBit/s
Качество                 : Высокий
Добавление ID3-тега      : Нет
Утилита сжатия           : C:\Program Files\Exact Audio Copy\Flac\flac.exe
Дополнительные параметры : -V -8 %source%
TOC извлечённого CD
     Трек |   Старт  | Длительность | Начальный сектор | Конечный сектор
    ---------------------------------------------------------------------
       1  |  0:00.00 |    4:27.45   |           0      |      20069
       2  |  4:27.45 |    4:04.20   |       20070      |      38389
       3  |  8:31.65 |    3:44.12   |       38390      |      55201
       4  | 12:16.02 |    3:18.60   |       55202      |      70111
       5  | 15:34.62 |    3:26.53   |       70112      |      85614
       6  | 19:01.40 |    4:53.64   |       85615      |     107653
       7  | 23:55.29 |    5:56.34   |      107654      |     134387
       8  | 29:51.63 |    4:36.50   |      134388      |     155137
       9  | 34:28.38 |    3:27.29   |      155138      |     170691
      10  | 37:55.67 |    4:47.24   |      170692      |     192240
      11  | 42:43.16 |    5:26.69   |      192241      |     216759
      12  | 48:10.10 |    3:48.55   |      216760      |     233914
      13  | 51:58.65 |    3:49.49   |      233915      |     251138
      14  | 55:48.39 |    5:03.34   |      251139      |     273897
      15  | 60:51.73 |    6:20.30   |      273898      |     302427
      16  | 67:12.28 |    4:49.74   |      302428      |     324176
      17  | 72:02.27 |    4:05.37   |      324177      |     342588
Характеристики диапазона извлечения и сообщения об ошибках
Выбранный диапазон
     Имя файла C:\Program Files\Exact Audio Copy\Flac\Leaether Strip - AEscapism.wav
     Пиковый уровень 100.0 %
     Скорость извлечения 2.2 X
     Качество диапазона 99.9 %
     CRC теста DD427813
     CRC копии DD427813
     Копирование... OK
Ошибок не произошло
AccurateRip: сводка
Трек  1  отсутствует в базе данных
Трек  2  отсутствует в базе данных
Трек  3  отсутствует в базе данных
Трек  4  отсутствует в базе данных
Трек  5  отсутствует в базе данных
Трек  6  отсутствует в базе данных
Трек  7  отсутствует в базе данных
Трек  8  отсутствует в базе данных
Трек  9  отсутствует в базе данных
Трек 10  отсутствует в базе данных
Трек 11  отсутствует в базе данных
Трек 12  отсутствует в базе данных
Трек 13  отсутствует в базе данных
Трек 14  отсутствует в базе данных
Трек 15  отсутствует в базе данных
Трек 16  отсутствует в базе данных
Трек 17  отсутствует в базе данных
Ни одного трека нет в базе AccurateRip
Конец отчёта
==== Контрольная сумма отчёта D6582D81C4D4D44C589EFC5FF3223ECF06778965637C790786B97E33FE51C235 ====
Правила, инструкции, FAQ!!!
Торрент  Добавлен [26 июн 2020, 20:12] Скачать торрент Магнет ссылка
Скачать торрент
[ Размер 12.12 КБ / Просмотров 8 ]

Статус
Проверен 
 
Размер  1.1 ГБ
Приватный: Нет (DHT включён)
.torrent скачан  0
 


     Отправить личное сообщение
   
Страница 1 из 1
Показать сообщения за:  Поле сортировки  
Начать новую тему Ответить на тему


Сейчас этот форум просматривают: нет зарегистрированных пользователей и гости: 0


Вы не можете начинать темы
Вы не можете отвечать на сообщения
Вы не можете редактировать свои сообщения
Вы не можете удалять свои сообщения
Вы не можете добавлять вложения

Перейти:  
cron