Начать новую тему Ответить на тему
Статистика раздачи
Размер: 455.39 МБ | Добавлен: 26 июн 2020, 16:54 | Скачали: 0
Сидеров: 0  [0 байт/сек]    Личеров: 0  [0 байт/сек]
Пред. тема | След. тема 

Автор
Сообщение

СообщениеДобавлено: 26 июн 2020, 16:54 

Ответить с цитатой 

LEÆTHER STRIP OBJECT ÆP

Жанр: EBM
Страна-производитель диска: Germany
Год издания: 16 Nov 2012
Издатель (лейбл): Emmo.biz
Номер по каталогу: EZR 010
Аудиокодек: FLAC (*.flac)
Тип рипа: image+.cue
Битрейт аудио: lossless
Продолжительность: 52:52
Источник (релизер): Собственный CD
Наличие сканов в содержимом раздачи: да
Треклист:
CD - Tracklist:
1: Kiss my Deutschland
2: Cardiac arrest
3: Strong women - Hardcore females
4: Power trip
5: The march of man
6: Mirrors
7: It happened on Christmas day
8: Kiss my Deutschland (FGFC820 remix)
9: Kiss my Deutschland (Glory Hole mix by Needle Sharing)
10: Cardiac arrest (instrumental version)
Код:
Exact Audio Copy V1.0 beta 3 from 29. August 2011
Отчёт EAC об извлечении, выполненном 21. декабря 2012, 1:08
Leaether Strip / Object AEP
Дисковод: HL-DT-STDVDRAM GT10N   Adapter: 2  ID: 0
Режим чтения                 : Достоверность
Использование точного потока : Да
Отключение кэша аудио        : Да
Использование указателей C2  : Нет
Коррекция смещения при чтении                     : 102
Способность читать области Lead-in и Lead-out     : Нет
Заполнение пропущенных сэмплов тишиной            : Да
Удаление блоков с тишиной в начале и конце        : Нет
При вычислениях CRC использовались нулевые сэмплы : Да
Интерфейс                                         : Встроенный Win32-интерфейс для Win NT/2000
Выходной формат          : Пользовательский кодировщик
Выбранный битрейт        : 1024 kBit/s
Качество                 : Высокий
Добавление ID3-тега      : Нет
Утилита сжатия           : C:\Program Files\Exact Audio Copy\Flac\flac.exe
Дополнительные параметры : -V -8 %source%
TOC извлечённого CD
     Трек |   Старт  | Длительность | Начальный сектор | Конечный сектор
    ---------------------------------------------------------------------
       1  |  0:00.00 |    4:48.07   |           0      |      21606
       2  |  4:48.07 |    6:11.66   |       21607      |      49497
       3  | 10:59.73 |    4:58.39   |       49498      |      71886
       4  | 15:58.37 |    3:43.44   |       71887      |      88655
       5  | 19:42.06 |    5:11.53   |       88656      |     112033
       6  | 24:53.59 |    5:21.17   |      112034      |     136125
       7  | 30:15.01 |    5:02.46   |      136126      |     158821
       8  | 35:17.47 |    5:06.38   |      158822      |     181809
       9  | 40:24.10 |    6:22.06   |      181810      |     210465
      10  | 46:46.16 |    6:04.14   |      210466      |     237779
Характеристики диапазона извлечения и сообщения об ошибках
Выбранный диапазон
     Имя файла C:\Program Files\Exact Audio Copy\Flac\Leaether Strip - Object AEP.wav
     Пиковый уровень 100.0 %
     Скорость извлечения 1.8 X
     Качество диапазона 99.9 %
     CRC теста DEF13857
     CRC копии DEF13857
     Копирование... OK
Ошибок не произошло
AccurateRip: сводка
Трек  1  отсутствует в базе данных
Трек  2  отсутствует в базе данных
Трек  3  отсутствует в базе данных
Трек  4  отсутствует в базе данных
Трек  5  отсутствует в базе данных
Трек  6  отсутствует в базе данных
Трек  7  отсутствует в базе данных
Трек  8  отсутствует в базе данных
Трек  9  отсутствует в базе данных
Трек 10  отсутствует в базе данных
Ни одного трека нет в базе AccurateRip
Конец отчёта
Правила, инструкции, FAQ!!!
Торрент  Добавлен [26 июн 2020, 16:54] Скачать торрент Магнет ссылка
Скачать торрент
[ Размер 18.81 КБ / Просмотров 6 ]

Статус
Проверен 
 
Размер  455.39 МБ
Приватный: Нет (DHT включён)
.torrent скачан  0
 


     Отправить личное сообщение
   
Страница 1 из 1
Показать сообщения за:  Поле сортировки  
Начать новую тему Ответить на тему


Сейчас этот форум просматривают: нет зарегистрированных пользователей и гости: 1


Вы не можете начинать темы
Вы не можете отвечать на сообщения
Вы не можете редактировать свои сообщения
Вы не можете удалять свои сообщения
Вы не можете добавлять вложения

Перейти:  
cron