Начать новую тему Ответить на тему
Статистика раздачи
Размер: 189.16 МБ | Добавлен: 26 июн 2020, 17:31 | Скачали: 0
Сидеров: 0  [0 байт/сек]    Личеров: 0  [0 байт/сек]
Пред. тема | След. тема 

Автор
Сообщение

СообщениеДобавлено: 26 июн 2020, 17:31 

Ответить с цитатой 

Kommando XY / Welcome To Gestrikland
Жанр: EBM
Страна-производитель диска: Germany
Год издания диска: 2008
Издатель (лейбл): Electric Tremor Dessau
Номер по каталогу: ETD 016 CD
Страна: Sweden
Аудио кодек: FLAC (*.flac)
Тип рипа: image+.cue
Битрейт аудио: lossless
Продолжительность: 31:46
Источник (релизер): CD из личной коллекции.
Наличие сканов в содержимом раздачи: нет
Треклист:
01. Gestrikland 2:47
02. Genesis Does (What Nintendon't) 2:57
03. Gruvarbetare 3:37
04. Varför? 2:52
05. Vargavinter 3:21
06. Kvinnor 3:32
07. Parkfesten 3:12
08. Älgjakt 3:02
09. Brynäs IF 3:32
10. Vargen 3:49
Код:
Exact Audio Copy V0.99 prebeta 5 from 4. May 2009
Отчёт EAC об извлечении, выполненном 19. сентября 2010, 8:42
Kommando XY  / Welcome To Gestrikland
Дисковод: TSSTcorpCDDVDW TS-L632H   Adapter: 0  ID: 0
Режим чтения                 : Достоверность
Использование точного потока : Да
Отключение кэша аудио        : Да
Использование указателей C2  : Нет
Коррекция смещения при чтении                     : 6
Способность читать области Lead-in и Lead-out     : Нет
Заполнение пропущенных сэмплов тишиной            : Да
Удаление блоков с тишиной в начале и конце        : Нет
При вычислениях CRC использовались нулевые сэмплы : Да
Интерфейс                                         : Встроенный Win32-интерфейс для Win NT/2000
Выходной формат          : Пользовательский кодировщик
Выбранный битрейт        : 1024 kBit/s
Качество                 : Высокий
Добавление ID3-тэга      : Нет
Утилита сжатия           : C:\Program Files\Exact Audio Copy\FLAC\FLAC.EXE
Дополнительные параметры : -6 -V -T "ARTIST=%a" -T "TITLE=%t" -T "ALBUM=%g" -T "DATE=%y" -T "TRACKNUMBER=%n" -T "GENRE=%m" -T "COMMENT=%e" %s -o %d
TOC извлечённого CD
     Трек |   Старт  | Длительность | Начальный сектор | Конечный сектор
    ---------------------------------------------------------------------
       1  |  0:00.00 |    2:47.66   |           0      |      12590
       2  |  2:47.66 |    2:57.39   |       12591      |      25904
       3  |  5:45.30 |    3:37.47   |       25905      |      42226
       4  |  9:23.02 |    2:52.37   |       42227      |      55163
       5  | 12:15.39 |    3:20.74   |       55164      |      70237
       6  | 15:36.38 |    2:32.40   |       70238      |      81677
       7  | 18:09.03 |    3:12.38   |       81678      |      96115
       8  | 21:21.41 |    3:02.64   |       96116      |     109829
       9  | 24:24.30 |    3:32.33   |      109830      |     125762
      10  | 27:56.63 |    3:49.10   |      125763      |     142947
Характеристики диапазона извлечения и сообщения об ошибках
Выбранный диапазон
     Имя файла C:\Users\Алексей\Desktop\iPOD\Kommando XY  - Welcome To Gestrikland.wav
     Пиковый уровень 98.8 %
     Качество диапазона 100.0 %
     CRC теста 606723B2
     CRC копии 606723B2
     Копирование... OK
Ошибок не произошло
AccurateRip: сводка
Трек  1  нет в базе данных
Трек  2  нет в базе данных
Трек  3  нет в базе данных
Трек  4  нет в базе данных
Трек  5  нет в базе данных
Трек  6  нет в базе данных
Трек  7  нет в базе данных
Трек  8  нет в базе данных
Трек  9  нет в базе данных
Трек 10  нет в базе данных
Ни одного трека нет в базе AccurateRip
Конец отчёта
Код:
REM GENRE EBM
REM DATE 2008
REM DISCID 9507710A
REM COMMENT "ExactAudioCopy v0.99pb5"
PERFORMER "Kommando XY "
TITLE "Welcome To Gestrikland"
FILE "Kommando XY  - Welcome To Gestrikland.flac" WAVE
  TRACK 01 AUDIO
    TITLE "1 Gestrikland"
    PERFORMER "Kommando XY "
    INDEX 01 00:00:00
  TRACK 02 AUDIO
    TITLE "2 Genesis Does (What Nintendon't) "
    PERFORMER "Kommando XY "
    INDEX 00 02:45:66
    INDEX 01 02:47:66
  TRACK 03 AUDIO
    TITLE "3 Gruvarbetare"
    PERFORMER "Kommando XY "
    INDEX 00 05:43:30
    INDEX 01 05:45:30
  TRACK 04 AUDIO
    TITLE "4 Varfor?"
    PERFORMER "Kommando XY "
    INDEX 00 09:21:02
    INDEX 01 09:23:02
  TRACK 05 AUDIO
    TITLE "5 Vargavinter"
    PERFORMER "Kommando XY "
    INDEX 00 12:13:39
    INDEX 01 12:15:39
  TRACK 06 AUDIO
    TITLE "6 Kvinnor"
    PERFORMER "Kommando XY "
    INDEX 00 15:34:38
    INDEX 01 15:36:38
  TRACK 07 AUDIO
    TITLE "7 Parkfesten"
    PERFORMER "Kommando XY "
    INDEX 00 18:07:03
    INDEX 01 18:09:03
  TRACK 08 AUDIO
    TITLE "8 Algjakt "
    PERFORMER "Kommando XY "
    INDEX 00 21:19:41
    INDEX 01 21:21:41
  TRACK 09 AUDIO
    TITLE "9 Brynas IF"
    PERFORMER "Kommando XY "
    INDEX 00 24:22:30
    INDEX 01 24:24:30
  TRACK 10 AUDIO
    TITLE "10 Vargen"
    PERFORMER "Kommando XY "
    INDEX 00 27:54:63
    INDEX 01 27:56:63
Проект Gustav Jansson, участника Sturm Café.
Правила, инструкции, FAQ!!!
Торрент  Добавлен [26 июн 2020, 17:31] Скачать торрент Магнет ссылка
Скачать торрент
[ Размер 15.44 КБ / Просмотров 9 ]

Статус
Проверен 
 
Размер  189.16 МБ
Приватный: Нет (DHT включён)
.torrent скачан  0
 


     Отправить личное сообщение
   
Страница 1 из 1
Показать сообщения за:  Поле сортировки  
Начать новую тему Ответить на тему


Сейчас этот форум просматривают: нет зарегистрированных пользователей и гости: 0


Вы не можете начинать темы
Вы не можете отвечать на сообщения
Вы не можете редактировать свои сообщения
Вы не можете удалять свои сообщения
Вы не можете добавлять вложения

Перейти:  
cron