Начать новую тему Ответить на тему
Статистика раздачи
Размер: 312.53 МБ | Добавлен: 26 июн 2020, 20:27 | Скачали: 0
Сидеров: 0  [0 байт/сек]    Личеров: 0  [0 байт/сек]
Пред. тема | След. тема 

Автор
Сообщение

СообщениеДобавлено: 26 июн 2020, 20:27 

Ответить с цитатой 

Klinik - Black Leather
Жанр: EBM
Год выпуска диска: 2005
Производитель диска: Germany
Аудио кодек: FLAC
Тип рипа: tracks+.cue
Битрейт аудио: lossless
Трэклист:
1 White Trash (3:53)
2 Black Leather (3:13)
3 Obsession (4:03)
4 Fever (3:20)
5 Moving Hands (3:55)
6 Public Pressure (3:01)
7 Desire (3:01)
8 Memories (5:06)
9 Nursery (2:33)
10 Sick In Your Mind (Remix) (4:38)
11 Fear (5:14)
12 Go Back (4:52)
13 Drowning In Your Sleep (2:13)
14 Pain And Pleasure (5:39)
Доп. информация:
Exact Audio Copy V0.99 prebeta 4 from 23. January 2008
EAC extraction logfile from 3. February 2009, 18:47
Klinik / Black Leather
Used drive : _NEC DVD+-RW ND-6650A Adapter: 2 ID: 0
Read mode : Secure
Utilize accurate stream : Yes
Defeat audio cache : Yes
Make use of C2 pointers : No
Read offset correction : 48
Overread into Lead-In and Lead-Out : No
Fill up missing offset samples with silence : Yes
Delete leading and trailing silent blocks : No
Null samples used in CRC calculations : Yes
Used interface : Installed external ASPI interface
Gap handling : Appended to previous track
Used output format : User Defined Encoder
Selected bitrate : 1024 kBit/s
Quality : High
Add ID3 tag : No
Command line compressor : C:\Program Files\Exact Audio Copy2\Flac\flac.exe
Additional command line options : -8 -V -T "ARTIST=%a" -T "TITLE=%t" -T "ALBUM=%g" -T "DATE=%y" -T "TRACKNUMBER=%n" -T "GENRE=%m" -T "COMMENT=%e" %s -o %d
TOC of the extracted CD
Track | Start | Length | Start sector | End sector
---------------------------------------------------------
1 | 0:00.00 | 3:53.74 | 0 | 17548
2 | 3:53.74 | 3:13.17 | 17549 | 32040
3 | 7:07.16 | 4:03.10 | 32041 | 50275
4 | 11:10.26 | 3:20.07 | 50276 | 65282
5 | 14:30.33 | 3:55.56 | 65283 | 82963
6 | 18:26.14 | 3:01.46 | 82964 | 96584
7 | 21:27.60 | 3:01.12 | 96585 | 110171
8 | 24:28.72 | 5:06.28 | 110172 | 133149
9 | 29:35.25 | 2:33.18 | 133150 | 144642
10 | 32:08.43 | 4:38.31 | 144643 | 165523
11 | 36:46.74 | 5:14.32 | 165524 | 189105
12 | 42:01.31 | 4:52.69 | 189106 | 211074
13 | 46:54.25 | 2:13.58 | 211075 | 221107
14 | 49:08.08 | 5:39.16 | 221108 | 246548
Track 1
Filename C:\EAC\01-White Trash.wav
Pre-gap length 0:00:02.00
Peak level 99.2 %
Track quality 100.0 %
Test CRC E5093369
Copy CRC E5093369
Copy OK
Track 2
Filename C:\EAC\02-Black Leather.wav
Pre-gap length 0:00:02.88
Peak level 99.2 %
Track quality 100.0 %
Test CRC F059F834
Copy CRC F059F834
Copy OK
Track 3
Filename C:\EAC\03-Obsession.wav
Pre-gap length 0:00:02.88
Peak level 99.2 %
Track quality 100.0 %
Test CRC 7D3597A7
Copy CRC 7D3597A7
Copy OK
Track 4
Filename C:\EAC\04-Fever.wav
Pre-gap length 0:00:01.78
Peak level 96.0 %
Track quality 100.0 %
Test CRC AE6983AC
Copy CRC AE6983AC
Copy OK
Track 5
Filename C:\EAC\05-Moving Hands.wav
Pre-gap length 0:00:02.70
Peak level 94.2 %
Track quality 99.9 %
Test CRC 91411AC9
Copy CRC 91411AC9
Copy OK
Track 6
Filename C:\EAC\06-Public Pressure.wav
Pre-gap length 0:00:02.98
Peak level 88.3 %
Track quality 100.0 %
Test CRC 71243D52
Copy CRC 71243D52
Copy OK
Track 7
Filename C:\EAC\07-Desire.wav
Pre-gap length 0:00:02.85
Peak level 89.6 %
Track quality 100.0 %
Test CRC 4D9FEFD8
Copy CRC 4D9FEFD8
Copy OK
Track 8
Filename C:\EAC\08-Memories.wav
Pre-gap length 0:00:02.68
Peak level 87.0 %
Track quality 100.0 %
Test CRC 61D6C21C
Copy CRC 61D6C21C
Copy OK
Track 9
Filename C:\EAC\09-Nursery.wav
Pre-gap length 0:00:02.81
Peak level 75.9 %
Track quality 100.0 %
Test CRC 8845B5E2
Copy CRC 8845B5E2
Copy OK
Track 10
Filename C:\EAC\10-Sick in Your Mind (Remix).wav
Pre-gap length 0:00:01.34
Peak level 57.7 %
Track quality 100.0 %
Test CRC 64859B3F
Copy CRC 64859B3F
Copy OK
Track 11
Filename C:\EAC\11-Fear.wav
Pre-gap length 0:00:02.13
Peak level 95.6 %
Track quality 99.9 %
Test CRC DF8AB5B5
Copy CRC DF8AB5B5
Copy OK
Track 12
Filename C:\EAC\12-Go Back.wav
Pre-gap length 0:00:03.10
Peak level 98.3 %
Track quality 100.0 %
Test CRC 3B7797C8
Copy CRC 3B7797C8
Copy OK
Track 13
Filename C:\EAC\13-Drowning in Your Sleep.wav
Pre-gap length 0:00:03.56
Peak level 87.0 %
Track quality 100.0 %
Test CRC 74F7BF71
Copy CRC 74F7BF71
Copy OK
Track 14
Filename C:\EAC\14-Pain and Pleasure (Live).wav
Pre-gap length 0:00:01.52
Peak level 91.6 %
Track quality 100.0 %
Test CRC 65A30F22
Copy CRC 65A30F22
Copy OK
No errors occurred
End of status report
Label: Hands Productions
Catalog#: D083
Format: CD, Album, Reissue, SmartPac
Credits: Mastered By - Erwin Sampermans (tracks: 4-13)
Notes: Originally released in 1990 (SmartPac lists 1991, but that's not correct).
Sequence and percussion on track 10 by Eric Van Wonterghem.
Track 14 recorded live at Paradiso 9th May 1986 Amsterdam.
Правила, инструкции, FAQ!!!
Торрент  Добавлен [26 июн 2020, 20:27] Скачать торрент Магнет ссылка
Скачать торрент
[ Размер 13.54 КБ / Просмотров 6 ]

Статус
Проверен 
 
Размер  312.53 МБ
Приватный: Нет (DHT включён)
.torrent скачан  0
 


     Отправить личное сообщение
   
Страница 1 из 1
Показать сообщения за:  Поле сортировки  
Начать новую тему Ответить на тему


Сейчас этот форум просматривают: нет зарегистрированных пользователей и гости: 0


Вы не можете начинать темы
Вы не можете отвечать на сообщения
Вы не можете редактировать свои сообщения
Вы не можете удалять свои сообщения
Вы не можете добавлять вложения

Перейти:  
cron