Начать новую тему Ответить на тему
Статистика раздачи
Размер: 485.06 МБ | Добавлен: 26 июн 2020, 17:22 | Скачали: 0
Сидеров: 0  [0 байт/сек]    Личеров: 0  [0 байт/сек]
Пред. тема | След. тема 

Автор
Сообщение

СообщениеДобавлено: 26 июн 2020, 17:22 

Ответить с цитатой 

AD:Key / Thema Nummer Eins
Жанр: EBM
Страна-производитель диска: Germany
Год издания: 2008
Издатель (лейбл): Electric Tremor Dessau
Номер по каталогу: ETD 015 CD
Формат: CD, Album
Аудиокодек: FLAC (*.flac)
Тип рипа: image+.cue
Битрейт аудио: lossless
Продолжительность: 1:05:04.00
Источник (релизер): Физический носитель (Собственный рип с оригинала)
Наличие сканов в содержимом раздачи: да
Треклист:
01. Lass Mich Los [2:56]
02. Koerper Um Koerper [5:08]
03. Modern Angel [3:38]
04. Hoch Die Haemmer [3:32]
05. Elitaer [4:08]
06. Kuess Mich [4:28]
07. Pour Toi [3:50]
08. Sex Ist Macht [4:38]
09. Shout [4:16]
10. Seelenstrip [4:50]
11. Frostengel [3:50]
12. Gruene Augen Luegen [4:44]
13. Tanzflaechenhooligan [3:14]
14. Modern Angel (Konstruktionsfehler-Mix) [4:20]
15. Pour Toi (Pfuetzenspringer-Mix) [2:56]
16. Sex Ist Macht (Remix by Final Selection) [4:36]
Код:
Exact Audio Copy V1.0 beta 3 from 29. August 2011
EAC extraction logfile from 16. April 2012, 15:31
AD:Key / Thema Nummer Eins
Used drive  : PLEXTOR BDDVDR PX-B320SA   Adapter: 0  ID: 2
Read mode               : Secure
Utilize accurate stream : Yes
Defeat audio cache      : Yes
Make use of C2 pointers : No
Read offset correction                      : 6
Overread into Lead-In and Lead-Out          : No
Fill up missing offset samples with silence : Yes
Delete leading and trailing silent blocks   : No
Null samples used in CRC calculations       : Yes
Used interface                              : Native Win32 interface for Win NT & 2000
Used output format              : User Defined Encoder
Selected bitrate                : 128 kBit/s
Quality                         : High
Add ID3 tag                     : No
Command line compressor         : C:\Program Files (x86)\FLAC\flac.exe
Additional command line options : -V -8 -T "Date=%year%" -T "Genre=%genre%" %source%
TOC of the extracted CD
     Track |   Start  |  Length  | Start sector | End sector
    ---------------------------------------------------------
        1  |  0:00.00 |  2:56.00 |         0    |    13199
        2  |  2:56.00 |  5:08.00 |     13200    |    36299
        3  |  8:04.00 |  3:38.00 |     36300    |    52649
        4  | 11:42.00 |  3:32.00 |     52650    |    68549
        5  | 15:14.00 |  4:08.00 |     68550    |    87149
        6  | 19:22.00 |  4:28.00 |     87150    |   107249
        7  | 23:50.00 |  3:50.00 |    107250    |   124499
        8  | 27:40.00 |  4:38.00 |    124500    |   145349
        9  | 32:18.00 |  4:16.00 |    145350    |   164549
       10  | 36:34.00 |  4:50.00 |    164550    |   186299
       11  | 41:24.00 |  3:50.00 |    186300    |   203549
       12  | 45:14.00 |  4:44.00 |    203550    |   224849
       13  | 49:58.00 |  3:14.00 |    224850    |   239399
       14  | 53:12.00 |  4:20.00 |    239400    |   258899
       15  | 57:32.00 |  2:56.00 |    258900    |   272099
       16  | 60:28.00 |  4:36.00 |    272100    |   292799
Range status and errors
Selected range
     Filename D:\AD..Key - Thema Nummer Eins (2008)\AD-Key - Thema Nummer Eins.wav
     Peak level 98.8 %
     Extraction speed 3.4 X
     Range quality 99.9 %
     Test CRC 469AB439
     Copy CRC 469AB439
     Copy OK
No errors occurred
AccurateRip summary
Track  1  not present in database
Track  2  not present in database
Track  3  not present in database
Track  4  not present in database
Track  5  not present in database
Track  6  not present in database
Track  7  not present in database
Track  8  not present in database
Track  9  not present in database
Track 10  not present in database
Track 11  not present in database
Track 12  not present in database
Track 13  not present in database
Track 14  not present in database
Track 15  not present in database
Track 16  not present in database
None of the tracks are present in the AccurateRip database
End of status report
==== Log checksum B6488C91DF9612B4F1EB68B9F85F84B7C358B203A8CB542F85DCBBAE666B019F ====
Раздача осуществляется исключительно в ознакомительных целях!
Всем, кому понравилось творчество AD:Key
, после ознакомления, советую приобрести лицензионный диск, и тем самым поддержать исполнителя !
Handing out is carried out only to get acquainted!
Everyone who likes to art AD:Key
, I advise to follow my example and buy a license legally CD, and thus support the artist!
Правила, инструкции, FAQ!!!
Торрент  Добавлен [26 июн 2020, 17:22] Скачать торрент Магнет ссылка
Скачать торрент
[ Размер 19.9 КБ / Просмотров 5 ]

Статус
Проверен 
 
Размер  485.06 МБ
Приватный: Нет (DHT включён)
.torrent скачан  0
 


     Отправить личное сообщение
   
Страница 1 из 1
Показать сообщения за:  Поле сортировки  
Начать новую тему Ответить на тему


Сейчас этот форум просматривают: нет зарегистрированных пользователей и гости: 0


Вы не можете начинать темы
Вы не можете отвечать на сообщения
Вы не можете редактировать свои сообщения
Вы не можете удалять свои сообщения
Вы не можете добавлять вложения

Перейти:  
cron