Начать новую тему Ответить на тему
Статистика раздачи
Размер: 524.72 МБ | Добавлен: 26 июн 2020, 17:55 | Скачали: 0
Сидеров: 0  [0 байт/сек]    Личеров: 0  [0 байт/сек]
Пред. тема | След. тема 

Автор
Сообщение

СообщениеДобавлено: 26 июн 2020, 17:55 

Ответить с цитатой 

AD:Key / That's It!
Жанр: EBM
Страна-производитель диска: Germany
Год издания: 2010
Издатель (лейбл): Electric Tremor Dessau
Номер по каталогу: ETD 033 CD
Формат: CD, Album
Аудиокодек: FLAC (*.flac)
Тип рипа: image+.cue
Битрейт аудио: lossless
Продолжительность: 1:08:33.53
Источник (релизер): Физический носитель (Собственный рип с оригинала)
Наличие сканов в содержимом раздачи: да
Треклист:
01. That‘s It! [4:20]
02. Alte Geister [4:02]
03. Pissed Off [5:05]
04. Stalker [4:25]
05. Break The Silence [5:01]
06. Pornös [4:33]
07. Our World Of EBM [3:59]
08. Resist [4:57]
09. Meine Liebe [4:14]
10. Krank Im Kopf [4:01]
11. Unter Dem Tresen [3:35]
12. Porno-Song [3:52]
13. Pissed Off (Latex-Version) [4:33]
14. Pour Toi (Agonoize Mix) [3:55]
15. Our World Of EBM (Leomuster-Version) [4:14]
16. Our World Of EBM (Radio-Version) [3:48]
Код:
Exact Audio Copy V1.0 beta 3 from 29. August 2011
EAC extraction logfile from 16. April 2012, 14:09
AD:Key / That's It!
Used drive  : PLEXTOR BDDVDR PX-B320SA   Adapter: 0  ID: 2
Read mode               : Secure
Utilize accurate stream : Yes
Defeat audio cache      : Yes
Make use of C2 pointers : No
Read offset correction                      : 6
Overread into Lead-In and Lead-Out          : No
Fill up missing offset samples with silence : Yes
Delete leading and trailing silent blocks   : No
Null samples used in CRC calculations       : Yes
Used interface                              : Native Win32 interface for Win NT & 2000
Used output format              : User Defined Encoder
Selected bitrate                : 128 kBit/s
Quality                         : High
Add ID3 tag                     : No
Command line compressor         : C:\Program Files (x86)\FLAC\flac.exe
Additional command line options : -V -8 -T "Date=%year%" -T "Genre=%genre%" %source%
TOC of the extracted CD
     Track |   Start  |  Length  | Start sector | End sector
    ---------------------------------------------------------
        1  |  0:00.00 |  4:19.43 |         0    |    19467
        2  |  4:19.43 |  4:02.30 |     19468    |    37647
        3  |  8:21.73 |  5:05.02 |     37648    |    60524
        4  | 13:27.00 |  4:25.14 |     60525    |    80413
        5  | 17:52.14 |  5:01.04 |     80414    |   102992
        6  | 22:53.18 |  4:32.45 |    102993    |   123437
        7  | 27:25.63 |  3:59.26 |    123438    |   141388
        8  | 31:25.14 |  4:57.01 |    141389    |   163664
        9  | 36:22.15 |  4:13.42 |    163665    |   182681
       10  | 40:35.57 |  4:01.05 |    182682    |   200761
       11  | 44:36.62 |  3:34.72 |    200762    |   216883
       12  | 48:11.59 |  3:51.45 |    216884    |   234253
       13  | 52:03.29 |  4:32.64 |    234254    |   254717
       14  | 56:36.18 |  3:55.24 |    254718    |   272366
       15  | 60:31.42 |  4:13.58 |    272367    |   291399
       16  | 64:45.25 |  3:48.28 |    291400    |   308527
Range status and errors
Selected range
     Filename D:\AD..Key - That's It! (2010)\AD-Key - That's It!.wav
     Peak level 98.9 %
     Extraction speed 7.8 X
     Range quality 100.0 %
     Test CRC 8AE36533
     Copy CRC 8AE36533
     Copy OK
No errors occurred
AccurateRip summary
Track  1  accurately ripped (confidence 2)  [632BCC98]  (AR v1)
Track  2  accurately ripped (confidence 2)  [1C6A920F]  (AR v1)
Track  3  accurately ripped (confidence 2)  [B25B1EE2]  (AR v1)
Track  4  accurately ripped (confidence 2)  [BB5CB635]  (AR v1)
Track  5  accurately ripped (confidence 2)  [6800E377]  (AR v1)
Track  6  accurately ripped (confidence 2)  [5CEC1140]  (AR v1)
Track  7  accurately ripped (confidence 2)  [6F237D13]  (AR v1)
Track  8  accurately ripped (confidence 2)  [9ECE908F]  (AR v1)
Track  9  accurately ripped (confidence 2)  [DBA0C9FE]  (AR v1)
Track 10  accurately ripped (confidence 2)  [279870AF]  (AR v1)
Track 11  accurately ripped (confidence 2)  [51823C2C]  (AR v1)
Track 12  accurately ripped (confidence 2)  [D1E936C5]  (AR v1)
Track 13  accurately ripped (confidence 2)  [CCBC5D72]  (AR v1)
Track 14  accurately ripped (confidence 2)  [2B091ABE]  (AR v1)
Track 15  accurately ripped (confidence 2)  [4458134D]  (AR v1)
Track 16  accurately ripped (confidence 2)  [89421A2C]  (AR v1)
All tracks accurately ripped
End of status report
==== Log checksum 40103E0C5C9D9B227E811CD2D56F44C250E2BA51721ED99817317011354A89F8 ====
Раздача осуществляется исключительно в ознакомительных целях!
Всем, кому понравилось творчество AD:Key
, после ознакомления, советую приобрести лицензионный диск, и тем самым поддержать исполнителя !
Handing out is carried out only to get acquainted!
Everyone who likes to art AD:Key
, I advise to follow my example and buy a license legally CD, and thus support the artist!
Правила, инструкции, FAQ!!!
Торрент  Добавлен [26 июн 2020, 17:55] Скачать торрент Магнет ссылка
Скачать торрент
[ Размер 11.17 КБ / Просмотров 6 ]

Статус
Проверен 
 
Размер  524.72 МБ
Приватный: Нет (DHT включён)
.torrent скачан  0
 


     Отправить личное сообщение
   
Страница 1 из 1
Показать сообщения за:  Поле сортировки  
Начать новую тему Ответить на тему


Сейчас этот форум просматривают: нет зарегистрированных пользователей и гости: 0


Вы не можете начинать темы
Вы не можете отвечать на сообщения
Вы не можете редактировать свои сообщения
Вы не можете удалять свои сообщения
Вы не можете добавлять вложения

Перейти:  
cron