Начать новую тему Ответить на тему
Статистика раздачи
Размер: 437.42 МБ | Добавлен: 26 июн 2020, 20:57 | Скачали: 0
Сидеров: 0  [0 байт/сек]    Личеров: 0  [0 байт/сек]
Пред. тема | След. тема 

Автор
Сообщение

СообщениеДобавлено: 26 июн 2020, 20:57 

Ответить с цитатой 

Kant Kino - We Are Kant Kino - You Are Not
Жанр: EBM
Год выпуска диска: 2010
Производитель диска: Alfa Matrix, Belgium
Аудио кодек: FLAC
Тип рипа: image+.cue
Битрейт аудио: lossless
Продолжительность: 1:01:16.35
Треклист:
01. We Are Kant Kino 4:16
02. Firebrigade 3:57
03. Submissive Nation 3:41
04. Invisible Tears 5:11
05. Stille! 3:47
06. Owner Of This House Lives Here 4:08
07. Red Rain 4:01
08. Forgotten Faces 4:06
09. Soulfood 4:42
10. You Gave Me Nothing 6:03
11. This Is Why 5:18
12. Tales 4:00
13. Fight! amGod Vs. Kant Kino (Wax Off Remix) 3:41
14. The End Too Soon... 4:25
Доп. информация: CD из личной коллекции.
Exact Audio Copy V0.99 prebeta 5 from 4. May 2009
Отчёт EAC об извлечении, выполненном 27. августа 2010, 19:15
Kant Kino / We Are Kant Kino – You Are Not
Дисковод: TSSTcorpCDDVDW TS-L632H Adapter: 0 ID: 0
Режим чтения : Достоверность
Использование точного потока : Да
Отключение кэша аудио : Да
Использование указателей C2 : Нет
Коррекция смещения при чтении : 6
Способность читать области Lead-in и Lead-out : Нет
Заполнение пропущенных сэмплов тишиной : Да
Удаление блоков с тишиной в начале и конце : Нет
При вычислениях CRC использовались нулевые сэмплы : Да
Интерфейс : Встроенный Win32-интерфейс для Win NT/2000
Выходной формат : Пользовательский кодировщик
Выбранный битрейт : 1024 kBit/s
Качество : Высокий
Добавление ID3-тэга : Нет
Утилита сжатия : C:\Program Files\Exact Audio Copy\FLAC\FLAC.EXE
Дополнительные параметры : -6 -V -T "ARTIST=%a" -T "TITLE=%t" -T "ALBUM=%g" -T "DATE=%y" -T "TRACKNUMBER=%n" -T "GENRE=%m" -T "COMMENT=%e" %s -o %d
TOC извлечённого CD
Трек | Старт | Длительность | Начальный сектор | Конечный сектор
---------------------------------------------------------------------
1 | 0:00.00 | 4:16.29 | 0 | 19228
2 | 4:16.29 | 3:57.02 | 19229 | 37005
3 | 8:13.31 | 3:41.15 | 37006 | 53595
4 | 11:54.46 | 5:11.25 | 53596 | 76945
5 | 17:05.71 | 3:47.17 | 76946 | 93987
6 | 20:53.13 | 4:07.40 | 93988 | 112552
7 | 25:00.53 | 4:00.60 | 112553 | 130612
8 | 29:01.38 | 4:06.06 | 130613 | 149068
9 | 33:07.44 | 4:42.00 | 149069 | 170218
10 | 37:49.44 | 6:03.03 | 170219 | 197446
11 | 43:52.47 | 5:18.17 | 197447 | 221313
12 | 49:10.64 | 4:00.00 | 221314 | 239313
13 | 53:10.64 | 3:40.46 | 239314 | 255859
14 | 56:51.35 | 4:25.00 | 255860 | 275734
Характеристики диапазона извлечения и сообщения об ошибках
Выбранный диапазон
Имя файла C:\Users\Алексей\Desktop\iPOD\Kant Kino - We Are Kant Kino – You Are Not.wav
Пиковый уровень 100.0 %
Качество диапазона 100.0 %
CRC теста 7038EDB5
CRC копии 7038EDB5
Копирование... OK
Ошибок не произошло
AccurateRip: сводка
Трек 1 нет в базе данных
Трек 2 нет в базе данных
Трек 3 нет в базе данных
Трек 4 нет в базе данных
Трек 5 нет в базе данных
Трек 6 нет в базе данных
Трек 7 нет в базе данных
Трек 8 нет в базе данных
Трек 9 нет в базе данных
Трек 10 нет в базе данных
Трек 11 нет в базе данных
Трек 12 нет в базе данных
Трек 13 нет в базе данных
Трек 14 нет в базе данных
Ни одного трека нет в базе AccurateRip
Конец отчёта
REM DISCID C10E5C0E
REM COMMENT "ExactAudioCopy v0.99pb5"
PERFORMER "Kant Kino"
TITLE "We Are Kant Kino – You Are Not"
FILE "Kant Kino - We Are Kant Kino – You Are Not.flac" WAVE
TRACK 01 AUDIO
TITLE "1. We are Kant Kino"
PERFORMER "Kant Kino"
FLAGS DCP
INDEX 01 00:00:00
TRACK 02 AUDIO
TITLE "2. Firebrigade"
PERFORMER "Kant Kino"
FLAGS DCP
INDEX 00 04:14:29
INDEX 01 04:16:29
TRACK 03 AUDIO
TITLE "3. Submissive Nation"
PERFORMER "Kant Kino"
FLAGS DCP
INDEX 00 08:11:31
INDEX 01 08:13:31
TRACK 04 AUDIO
TITLE "4. Invisible Tears"
PERFORMER "Kant Kino"
FLAGS DCP
INDEX 00 11:52:46
INDEX 01 11:54:46
TRACK 05 AUDIO
TITLE "5. Stille!"
PERFORMER "Kant Kino"
FLAGS DCP
INDEX 00 17:03:71
INDEX 01 17:05:71
TRACK 06 AUDIO
TITLE "6. Owner Of This House"
PERFORMER "Kant Kino"
FLAGS DCP
INDEX 00 20:51:13
INDEX 01 20:53:13
TRACK 07 AUDIO
TITLE "7. Red Rain"
PERFORMER "Kant Kino"
FLAGS DCP
INDEX 00 24:58:53
INDEX 01 25:00:53
TRACK 08 AUDIO
TITLE "8. Forgotten Faces"
PERFORMER "Kant Kino"
FLAGS DCP
INDEX 00 28:59:38
INDEX 01 29:01:38
TRACK 09 AUDIO
TITLE "9. Soulfood"
PERFORMER "Kant Kino"
FLAGS DCP
INDEX 00 33:05:44
INDEX 01 33:07:44
TRACK 10 AUDIO
TITLE "10. You Gave Me Nothing"
PERFORMER "Kant Kino"
FLAGS DCP
INDEX 00 37:47:44
INDEX 01 37:49:44
TRACK 11 AUDIO
TITLE "11. This Is Why"
PERFORMER "Kant Kino"
FLAGS DCP
INDEX 00 43:50:47
INDEX 01 43:52:47
TRACK 12 AUDIO
TITLE "12. Tales"
PERFORMER "Kant Kino"
FLAGS DCP
INDEX 00 49:08:64
INDEX 01 49:10:64
TRACK 13 AUDIO
TITLE "13. Fight! (Kant Kino vs amGod Wax Off Remix)"
PERFORMER "Kant Kino"
FLAGS DCP
INDEX 00 53:08:64
INDEX 01 53:10:64
TRACK 14 AUDIO
TITLE "14 / 14. The End Too Soon..."
PERFORMER "Kant Kino"
FLAGS DCP
INDEX 00 56:49:35
INDEX 01 56:51:35
Правила, инструкции, FAQ!!!
Торрент  Добавлен [26 июн 2020, 20:57] Скачать торрент Магнет ссылка
Скачать торрент
[ Размер 17.78 КБ / Просмотров 9 ]

Статус
Проверен 
 
Размер  437.42 МБ
Приватный: Нет (DHT включён)
.torrent скачан  0
 


     Отправить личное сообщение
   
Страница 1 из 1
Показать сообщения за:  Поле сортировки  
Начать новую тему Ответить на тему


Сейчас этот форум просматривают: нет зарегистрированных пользователей и гости: 0


Вы не можете начинать темы
Вы не можете отвечать на сообщения
Вы не можете редактировать свои сообщения
Вы не можете удалять свои сообщения
Вы не можете добавлять вложения

Перейти:  
cron