Начать новую тему Ответить на тему
Статистика раздачи
Размер: 375.38 МБ | Добавлен: 26 июн 2020, 19:45 | Скачали: 0
Сидеров: 0  [0 байт/сек]    Личеров: 0  [0 байт/сек]
Пред. тема | След. тема 

Автор
Сообщение

СообщениеДобавлено: 26 июн 2020, 19:45 

Ответить с цитатой 

Jihad - A Prayer In The Night
Жанр: EBM
Страна-производитель диска: USA
Год издания диска: 1997
Издатель (лейбл): RAS DVA
Номер по каталогу: CD 10
Страна: San Antonio, Texas
Аудиокодек: FLAC (*.flac)
Тип рипа: image+.cue
Битрейт аудио: lossless
Продолжительность: 52:22
Источник (релизер): Original CD
Наличие сканов в содержимом раздачи: да


Треклист:
1 - People Of The Land
2 - Guardian Angel
3 - Killobyte
4 - Grains Of Sand
5 - Hands That Hide
6 - Lucid Living
7 - Killobyte (Taipai Mix)
8 - Looking Glass
9 - Spectre
Код:
Exact Audio Copy V0.99 prebeta 5 from 4. May 2009
EAC extraction logfile from 1. July 2011, 19:12
Jihad / A Prayer In The Night
Used drive  : PIONEER DVD-RW  DVR-215D   Adapter: 3  ID: 0
Read mode               : Secure
Utilize accurate stream : Yes
Defeat audio cache      : Yes
Make use of C2 pointers : No
Read offset correction                      : 48
Overread into Lead-In and Lead-Out          : No
Fill up missing offset samples with silence : Yes
Delete leading and trailing silent blocks   : No
Null samples used in CRC calculations       : Yes
Used interface                              : Native Win32 interface for Win NT & 2000
Used output format              : User Defined Encoder
Selected bitrate                : 1024 kBit/s
Quality                         : High
Add ID3 tag                     : No
Command line compressor         : C:\Program Files\FLAC\flac.exe
TOC of the extracted CD
     Track |   Start  |  Length  | Start sector | End sector
    ---------------------------------------------------------
        1  |  0:00.00 |  5:09.74 |         0    |    23248
        2  |  5:09.74 |  6:30.68 |     23249    |    52566
        3  | 11:40.67 |  5:26.60 |     52567    |    77076
        4  | 17:07.52 |  6:59.19 |     77077    |   108520
        5  | 24:06.71 |  5:03.32 |    108521    |   131277
        6  | 29:10.28 |  5:44.26 |    131278    |   157103
        7  | 34:54.54 |  3:18.09 |    157104    |   171962
        8  | 38:12.63 |  5:17.02 |    171963    |   195739
        9  | 43:29.65 |  8:52.11 |    195740    |   235650
Range status and errors
Selected range
     Filename D:\Download\JIHAD - A Prayer In The Night cd\Jihad - A Prayer In The Night.wav
     Peak level 96.7 %
     Range quality 99.9 %
     Test CRC 71CBE257
     Copy CRC 71CBE257
     Copy OK
No errors occurred
AccurateRip summary
Track  1  accurately ripped (confidence 1)  [358C45B8]
Track  2  accurately ripped (confidence 1)  [4DFC24F4]
Track  3  accurately ripped (confidence 1)  [D472B2E9]
Track  4  accurately ripped (confidence 1)  [58C4DD76]
Track  5  accurately ripped (confidence 1)  [57A8ABA4]
Track  6  accurately ripped (confidence 1)  [34BC9B4C]
Track  7  accurately ripped (confidence 1)  [0C6CE8F3]
Track  8  accurately ripped (confidence 1)  [708703BC]
Track  9  accurately ripped (confidence 1)  [8E8B4E85]
All tracks accurately ripped
End of status report
Lyrics By – Rich Mendez
Mastered By – Ric Laciak
Mastered By [In Matrix] – Nimbus
Programmed By, Electronics – James Mendez
Vocals – James Mendez (tracks: 7), Rich Mendez (tracks: 1 to 6, 8, 9)
James Mendez - Programming And Electronics
Rich Mendez - Lyrics And Vocals
Правила, инструкции, FAQ!!!
Торрент  Добавлен [26 июн 2020, 19:45] Скачать торрент Магнет ссылка
Скачать торрент
[ Размер 15.66 КБ / Просмотров 9 ]

Статус
Проверен 
 
Размер  375.38 МБ
Приватный: Нет (DHT включён)
.torrent скачан  0
 


     Отправить личное сообщение
   
Страница 1 из 1
Показать сообщения за:  Поле сортировки  
Начать новую тему Ответить на тему


Сейчас этот форум просматривают: нет зарегистрированных пользователей и гости: 0


Вы не можете начинать темы
Вы не можете отвечать на сообщения
Вы не можете редактировать свои сообщения
Вы не можете удалять свои сообщения
Вы не можете добавлять вложения

Перейти:  
cron