Начать новую тему Ответить на тему
Статистика раздачи
Размер: 509.93 МБ | Добавлен: 26 июн 2020, 17:24 | Скачали: 0
Сидеров: 0  [0 байт/сек]    Личеров: 0  [0 байт/сек]
Пред. тема | След. тема 

Автор
Сообщение

СообщениеДобавлено: 26 июн 2020, 17:24 

Ответить с цитатой 

XuberX / Intelligence: Revised
Жанр: EBM industrial
Страна-производитель диска: USA
Год издания диска: 2009
Издатель (лейбл): Radio Active Music
Номер по каталогу: RAM 011
Аудио кодек: FLAC (*.flac)
Тип рипа: image+.cue
Битрейт аудио: lossless
Продолжительность: 1:08:16.58
Источник (релизер): Физический носитель
Наличие сканов в содержимом раздачи: да
Треклист:
01. Ingerssion (remixed by X-Fusion) [4:17]
02. The World Ends Today (The Mod mix by Blindtillnow) [4:13]
03. Intelligent Demise (Zombois Say Go! mix by Caustic) [3:33]
04. Gone (In 5 Minutes 27 Seconds by Gothisicles) [5:27]
05. Hollow (Tanglewood remix by Ubertype) [4:02]
06. Solution (Aileron remix by Hopeful Machines) [5:34]
07. Forgive, Forget (remixed by Iris) [5:03]
08. Within Silence (Robogirl remix by Assemblage 23) [5:56]
09. Blood Debt (remixed by Winter Offensive) [4:28]
10. Blackened (remixed by Ego Likeness) [4:02]
11. Forgive, Forget (Forgiveness Foregone remix by The Dark Clan) [4:15]
12. Solution (Slow Harmonics mix by Null Device) [6:49]
13. Blackened (remixed by Project Nemesis) [3:35]
14. Solution (Wishmaster remix by The Dark Clan) [7:03]
Код:
Exact Audio Copy V0.99 prebeta 5 from 4. May 2009
Отчёт EAC об извлечении, выполненном 28. октября 2010, 17:02
XuberX / Intelligence: Revised
Дисковод: Optiarc DVD RW AD-7173A   Adapter: 0  ID: 0
Режим чтения                 : Достоверность
Использование точного потока : Да
Отключение кэша аудио        : Да
Использование указателей C2  : Нет
Коррекция смещения при чтении                     : 48
Способность читать области Lead-in и Lead-out     : Нет
Заполнение пропущенных сэмплов тишиной            : Да
Удаление блоков с тишиной в начале и конце        : Нет
При вычислениях CRC использовались нулевые сэмплы : Да
Интерфейс                                         : Установленный внешний ASPI-интерфейс
Выходной формат          : Пользовательский кодировщик
Выбранный битрейт        : 1024 kBit/s
Качество                 : Высокий
Добавление ID3-тэга      : Нет
Утилита сжатия           : C:\Program Files\Exact Audio Copy\flac.exe
Дополнительные параметры : -6 -V -T "ARTIST=%a" -T "TITLE=%t" -T "ALBUM=%g" -T "DATE=%y" -T "TRACKNUMBER=%n" -T "GENRE=%m" -T "COMMENT=%e" %s -o %d
TOC извлечённого CD
     Трек |   Старт  | Длительность | Начальный сектор | Конечный сектор
    ---------------------------------------------------------------------
       1  |  0:00.00 |    4:17.30   |           0      |      19304
       2  |  4:17.30 |    4:13.06   |       19305      |      38285
       3  |  8:30.36 |    3:33.25   |       38286      |      54285
       4  | 12:03.61 |    5:26.69   |       54286      |      78804
       5  | 17:30.55 |    4:01.57   |       78805      |      96936
       6  | 21:32.37 |    5:34.06   |       96937      |     121992
       7  | 27:06.43 |    5:02.40   |      121993      |     144682
       8  | 32:09.08 |    5:56.31   |      144683      |     171413
       9  | 38:05.39 |    4:27.65   |      171414      |     191503
      10  | 42:33.29 |    4:01.57   |      191504      |     209635
      11  | 46:35.11 |    4:15.00   |      209636      |     228760
      12  | 50:50.11 |    6:48.61   |      228761      |     259421
      13  | 57:38.72 |    3:34.58   |      259422      |     275529
      14  | 61:13.55 |    7:03.03   |      275530      |     307257
Характеристики диапазона извлечения и сообщения об ошибках
Выбранный диапазон
     Имя файла H:\СКАЧКА\FLAC\1 TORRENT\XuberX - Intelligence. Revised.wav
     Пиковый уровень 97.7 %
     Качество диапазона 100.0 %
     CRC теста 854D9C63
     CRC копии 854D9C63
     Копирование... OK
Ошибок не произошло
AccurateRip: сводка
Трек  1  нет в базе данных
Трек  2  нет в базе данных
Трек  3  нет в базе данных
Трек  4  нет в базе данных
Трек  5  нет в базе данных
Трек  6  нет в базе данных
Трек  7  нет в базе данных
Трек  8  нет в базе данных
Трек  9  нет в базе данных
Трек 10  нет в базе данных
Трек 11  нет в базе данных
Трек 12  нет в базе данных
Трек 13  нет в базе данных
Трек 14  нет в базе данных
Ни одного трека нет в базе AccurateRip
Конец отчёта
Правила, инструкции, FAQ!!!
Торрент  Добавлен [26 июн 2020, 17:24] Скачать торрент Магнет ссылка
Скачать торрент
[ Размер 20.85 КБ / Просмотров 13 ]

Статус
Проверен 
 
Размер  509.93 МБ
Приватный: Нет (DHT включён)
.torrent скачан  0
 


     Отправить личное сообщение
   
Страница 1 из 1
Показать сообщения за:  Поле сортировки  
Начать новую тему Ответить на тему


Сейчас этот форум просматривают: нет зарегистрированных пользователей и гости: 0


Вы не можете начинать темы
Вы не можете отвечать на сообщения
Вы не можете редактировать свои сообщения
Вы не можете удалять свои сообщения
Вы не можете добавлять вложения

Перейти:  
cron