Начать новую тему Ответить на тему
Статистика раздачи
Размер: 879.17 МБ | Добавлен: 26 июн 2020, 20:51 | Скачали: 0
Сидеров: 0  [0 байт/сек]    Личеров: 0  [0 байт/сек]
Пред. тема | След. тема 

Автор
Сообщение

СообщениеДобавлено: 26 июн 2020, 20:51 

Ответить с цитатой 

:wumpscut: (Wumpscut) / Evoke [2CD,Digipak Limited Edition]
Жанр: EBM, Industrial
Страна-производитель диска: Russia
Год издания диска: 2005
Издатель (лейбл): Art Music Group
Номер по каталогу: AMG 260L
Страна: Germany
Аудио кодек: FLAC (*.flac)
Тип рипа: image+.cue
Битрейт аудио: lossless
Продолжительность: 00:50:56 + 01:13:12
Источник (релизер): Рип с личных СД
Наличие сканов в содержимом раздачи: да (600dpi)
Треклист:
Main Product:
01. Maiden (5:16)
02. Churist Churist (3:45)
03. Don't Go (4:25)
04. Evoke (5:30)
05. Tomb (5:31)
06. Hold (4:57)
07. Krolok (4:39)
08. Breathe (3:26)
09. Rush (4:38)
10. Perdition (4:37)
11 Obsessió (4:43)
Bonus Disciple:
01. Churist Churist (By Recently Deceased) (4:43)
02. Don't Go (Eighty 64C) (5:13)
03. Maiden (By Nersoton vs :wumpscut:) (4:31)
04. Rush (By Naked Beat) (5:29)
05. Obsessió (By Cerebral Apoplexy) (4:23)
06. Hold (By Yendri) (4:24)
07. Maiden (By Laittog) (4:27)
08. Hold (By Kirlian Camera) (7:45)
09. Rush (By Suicide Commando) (4:29)
10. Hold (By Naked Beat) (4:56)
11. Evoke (By Naked Beat) (5:25)
12. Perdition (By Cerebral Apoplexy) (4:27)
13. Rush (By Dismantled) (5:18)
14. Churist Churist (By Brain Leisure) (4:12)
15. Churist Churist (By Sacdar) (3:51)
Код:
Exact Audio Copy V0.99 prebeta 5 from 4. May 2009
Отчёт EAC об извлечении, выполненном 11. декабря 2010,
15:07
:Wumpscut: / Evoke (Main Product)
Дисковод: Optiarc DVD RW AD-7201S   Adapter: 2  ID: 1
Режим чтения                 : Достоверность
Использование точного потока : Да
Отключение кэша аудио        : Да
Использование указателей C2  : Нет
Коррекция смещения при чтении                     : 48
Способность читать области Lead-in и Lead-out     : Нет
Заполнение пропущенных сэмплов тишиной            : Да
Удаление блоков с тишиной в начале и конце        : Нет
При вычислениях CRC использовались нулевые сэмплы : Да
Интерфейс                                         : Встроенный Win32-
интерфейс для Win NT/2000
Выходной формат : Внутренние WAV-операции
Формат сэмплов  : 44.100 Гц; 16 бит; стерео
TOC извлечённого CD
     Трек |   Старт  | Длительность | Начальный сектор |
Конечный сектор
    ---------------------------------------------------------------------
       1  |  0:00.00 |    5:11.00   |           0      |      23324
       2  |  5:11.00 |    3:44.28   |       23325      |      40152
       3  |  8:55.28 |    4:23.51   |       40153      |      59928
       4  | 13:19.04 |    5:29.59   |       59929      |      84662
       5  | 18:48.63 |    5:25.43   |       84663      |     109080
       6  | 24:14.31 |    4:56.20   |      109081      |     131300
       7  | 29:10.51 |    4:34.40   |      131301      |     151890
       8  | 33:45.16 |    3:21.44   |      151891      |     167009
       9  | 37:06.60 |    4:30.58   |      167010      |     187317
      10  | 41:37.43 |    4:34.57   |      187318      |     207924
      11  | 46:12.25 |    4:43.24   |      207925      |     229173
Характеристики диапазона извлечения и сообщения об
ошибках
Выбранный диапазон
     Имя файла D:\Раздачи\Wumpscut - Evoke Limited Edition 2
CD\Wumpscut  - Evoke (Main Product).wav
     Пиковый уровень 100.0 %
     Качество диапазона 99.9 %
     CRC теста 99390EC8
     CRC копии 99390EC8
     Копирование... OK
Ошибок не произошло
AccurateRip: сводка
Трек  1  точное извлечение (доверие 2)  [DB75686C]
Трек  2  точное извлечение (доверие 2)  [C35BD81D]
Трек  3  точное извлечение (доверие 2)  [C58FB101]
Трек  4  точное извлечение (доверие 2)  [BC6AC744]
Трек  5  точное извлечение (доверие 2)  [7C619190]
Трек  6  точное извлечение (доверие 2)  [800C1A4A]
Трек  7  точное извлечение (доверие 2)  [15C008FC]
Трек  8  точное извлечение (доверие 2)  [4AE1AEE0]
Трек  9  точное извлечение (доверие 2)  [07B8149D]
Трек 10  точное извлечение (доверие 2)  [6ABC4416]
Трек 11  точное извлечение (доверие 2)  [FC658706]
Все треки извлечены точно
Конец отчёта
___________________________________________________________________________________________________________________________________
Exact Audio Copy V0.99 prebeta 5 from 4. May 2009
Отчёт EAC об извлечении, выполненном 11. декабря 2010,
15:25
:Wumpscut: and guests / Evoke (Bonus Disciple)
Дисковод: Optiarc DVD RW AD-7201S   Adapter: 2  ID: 1
Режим чтения                 : Достоверность
Использование точного потока : Да
Отключение кэша аудио        : Да
Использование указателей C2  : Нет
Коррекция смещения при чтении                     : 48
Способность читать области Lead-in и Lead-out     : Нет
Заполнение пропущенных сэмплов тишиной            : Да
Удаление блоков с тишиной в начале и конце        : Нет
При вычислениях CRC использовались нулевые сэмплы : Да
Интерфейс                                         : Встроенный Win32-
интерфейс для Win NT/2000
Выходной формат : Внутренние WAV-операции
Формат сэмплов  : 44.100 Гц; 16 бит; стерео
TOC извлечённого CD
     Трек |   Старт  | Длительность | Начальный сектор |
Конечный сектор
    ---------------------------------------------------------------------
       1  |  0:00.00 |    4:42.72   |           0      |      21221
       2  |  4:42.72 |    5:12.65   |       21222      |      44686
       3  |  9:55.62 |    4:30.05   |       44687      |      64941
       4  | 14:25.67 |    5:28.14   |       64942      |      89555
       5  | 19:54.06 |    4:21.66   |       89556      |     109196
       6  | 24:15.72 |    4:23.51   |      109197      |     128972
       7  | 28:39.48 |    4:24.49   |      128973      |     148821
       8  | 33:04.22 |    7:44.46   |      148822      |     183667
       9  | 40:48.68 |    4:23.37   |      183668      |     203429
      10  | 45:12.30 |    4:56.08   |      203430      |     225637
      11  | 50:08.38 |    5:25.12   |      225638      |     250024
      12  | 55:33.50 |    4:24.24   |      250025      |     269848
      13  | 59:57.74 |    5:13.08   |      269849      |     293331
      14  | 65:11.07 |    4:10.65   |      293332      |     312146
      15  | 69:21.72 |    3:50.10   |      312147      |     329406
Характеристики диапазона извлечения и сообщения об
ошибках
Выбранный диапазон
     Имя файла D:\Раздачи\Wumpscut - Evoke Limited Edition 2
CD\Wumpscut  and guests - Evoke (Bonus Disciple).wav
     Пиковый уровень 100.0 %
     Качество диапазона 100.0 %
     CRC теста 34CF612D
     CRC копии 34CF612D
     Копирование... OK
Ошибок не произошло
AccurateRip: сводка
Трек  1  точное извлечение (доверие 1)  [EF753335]
Трек  2  точное извлечение (доверие 1)  [BF36E19E]
Трек  3  точное извлечение (доверие 1)  [9E098D67]
Трек  4  точное извлечение (доверие 1)  [89A82F27]
Трек  5  точное извлечение (доверие 1)  [8D7966AA]
Трек  6  точное извлечение (доверие 1)  [066EA07F]
Трек  7  точное извлечение (доверие 1)  [933DC283]
Трек  8  точное извлечение (доверие 1)  [FBFCFF1D]
Трек  9  точное извлечение (доверие 1)  [823BB9CD]
Трек 10  точное извлечение (доверие 1)  [DC5BF630]
Трек 11  точное извлечение (доверие 1)  [1B7EB805]
Трек 12  точное извлечение (доверие 1)  [EE82F2B6]
Трек 13  точное извлечение (доверие 1)  [E9902546]
Трек 14  точное извлечение (доверие 1)  [51204D05]
Трек 15  точное извлечение (доверие 1)  [F50C5659]
Все треки извлечены точно
Конец отчёта
Код:
Started at: суббота, 11. 12. 2010. - 15:39.44
2 files found
1 -===- D:\Раздачи\Wumpscut - Evoke Limited Edition 2 CD\Wumpscut  - Evoke (Main Product).flac
  Extracted successfully
  Conclusion: this track is CDDA with probability 100%
  Tempfile successfully deleted.
2 -===- D:\Раздачи\Wumpscut - Evoke Limited Edition 2 CD\Wumpscut  and guests - Evoke (Bonus Disciple).flac
  Extracted successfully
  Conclusion: this track is CDDA with probability 100%
  Tempfile successfully deleted.
Finished at: суббота, 11. 12. 2010. - 15:52.17 (operation time: 0:12.32)
Правила, инструкции, FAQ!!!
Торрент  Добавлен [26 июн 2020, 20:51] Скачать торрент Магнет ссылка
Скачать торрент
[ Размер 18.64 КБ / Просмотров 9 ]

Статус
Проверен 
 
Размер  879.17 МБ
Приватный: Нет (DHT включён)
.torrent скачан  0
 


     Отправить личное сообщение
   
Страница 1 из 1
Показать сообщения за:  Поле сортировки  
Начать новую тему Ответить на тему


Сейчас этот форум просматривают: нет зарегистрированных пользователей и гости: 0


Вы не можете начинать темы
Вы не можете отвечать на сообщения
Вы не можете редактировать свои сообщения
Вы не можете удалять свои сообщения
Вы не можете добавлять вложения

Перейти:  
cron