Начать новую тему Ответить на тему
Статистика раздачи
Размер: 986.82 МБ | Добавлен: 26 июн 2020, 20:53 | Скачали: 0
Сидеров: 0  [0 байт/сек]    Личеров: 0  [0 байт/сек]
Пред. тема | След. тема 

Автор
Сообщение

СообщениеДобавлено: 26 июн 2020, 20:53 

Ответить с цитатой 

:wumpscut: (Wumpscut) / Cannibal Anthem [2 x CD, Limited Edition, Hardcover Book]
Жанр: EBM, Industrial
Страна-производитель диска: Germany
Год издания диска: 2006
Издатель (лейбл): Beton Kopf Media
Номер по каталогу: BKM ETAH 51
Страна: Germany
Аудио кодек: FLAC (*.flac)
Тип рипа: image+.cue
Битрейт аудио: lossless
Продолжительность: 00:45:48+01:05:01
Источник (релизер): Личный диск
Наличие сканов в содержимом раздачи: да
Треклист:
01. Herzlich Wilkommen 1:10
02. Wir Warten 4:20
03. Die Liebe 4:55
04. Jesus Antichristus 4:23
05. Cannibal Anthem 3:59
06. Auf Der Jagd 3:40
07. Pass Auf 5:11
08. Jetzt 3:20
09. Ohne Dich 4:21
10. Hunger 4:12
11. Recht Vog Gnade 6:11
Remix Kultur
01. Jesus Antichristus (By Feindflug) 4:46
02. Die Liebe (:wumpscut: Slow Motion Remix) 5:29
03. Die Liebe (By Yendri / Vocal Remix) 3:03
04. El Comandante 2:55
05. Jesus Antichristus (By Cynical Front) 5:46
06. Pass Auf (By Cerebral Apoplexy) 4:01
07. Jesus Antichristus (By Cerebral Apoplexy) 4:14
08. Jesus Antichristus (By Psychedelic Art) 4:53
09. Jesus Antichristus (By Xotox) 4:07
10. Pass Auf (By Naked Beat) 3:19
11. Jesus Antichristus (By Yendri) 4:34
12. Die Liebe (By Sacdar) 3:49
13. Jesus Antichristus (By Recently Deceased) 4:22
14. Die Liebe (By Cerebral Apoplexy) 3:52
15. Jesus Antichristus (By Psycho Shop) 5:43
Код:
Exact Audio Copy V0.99 prebeta 5 from 4. May 2009
Отчёт EAC об извлечении, выполненном 29. января 2011, 21:06
Wumpscut / Cannibal Anthem
Дисковод: PIONEER DVD-RW DVRTD10RS   Adapter: 1  ID: 0
Режим чтения                 : Достоверность
Использование точного потока : Да
Отключение кэша аудио        : Да
Использование указателей C2  : Нет
Коррекция смещения при чтении                     : 6
Способность читать области Lead-in и Lead-out     : Нет
Заполнение пропущенных сэмплов тишиной            : Да
Удаление блоков с тишиной в начале и конце        : Нет
При вычислениях CRC использовались нулевые сэмплы : Да
Интерфейс                                         : Встроенный Win32-интерфейс для Win NT/2000
Выходной формат : Внутренние WAV-операции
Формат сэмплов  : 44.100 Гц; 16 бит; стерео
TOC извлечённого CD
     Трек |   Старт  | Длительность | Начальный сектор | Конечный сектор
    ---------------------------------------------------------------------
       1  |  0:00.00 |    1:10.44   |           0      |       5293
       2  |  1:10.44 |    4:20.57   |        5294      |      24850
       3  |  5:31.26 |    4:55.20   |       24851      |      46995
       4  | 10:26.46 |    4:23.27   |       46996      |      66747
       5  | 14:49.73 |    3:59.44   |       66748      |      84716
       6  | 18:49.42 |    3:40.05   |       84717      |     101221
       7  | 22:29.47 |    5:11.39   |      101222      |     124585
       8  | 27:41.11 |    3:20.37   |      124586      |     139622
       9  | 31:01.48 |    4:21.66   |      139623      |     159263
      10  | 35:23.39 |    4:12.62   |      159264      |     178225
      11  | 39:36.26 |    6:11.34   |      178226      |     206084
Характеристики диапазона извлечения и сообщения об ошибках
Выбранный диапазон
     Имя файла C:\Раздачи DEHUMANOID\wumpscut  - Cannibal Anthem 2CD\Wumpscut - Cannibal Anthem.wav
     Пиковый уровень 100.0 %
     Качество диапазона 100 %
     CRC теста 095D1E43
     CRC копии 095D1E43
     Копирование... OK
Ошибок не произошло
AccurateRip: сводка
Трек  1  точное извлечение (доверие 7)  [5A712462]
Трек  2  точное извлечение (доверие 7)  [170772DA]
Трек  3  точное извлечение (доверие 7)  [72A91543]
Трек  4  точное извлечение (доверие 7)  [987B6B2A]
Трек  5  точное извлечение (доверие 8)  [A1EDCA36]
Трек  6  точное извлечение (доверие 7)  [5FD72B04]
Трек  7  точное извлечение (доверие 7)  [A50E11AB]
Трек  8  точное извлечение (доверие 7)  [C79C2CD7]
Трек  9  точное извлечение (доверие 8)  [9B5C4913]
Трек 10  точное извлечение (доверие 7)  [E8181BC0]
Трек 11  точное извлечение (доверие 7)  [68A704F9]
Все треки извлечены точно
Конец отчёта
------------------------------------------------------------------------------------------------------------------------------------------------------------------------------------------------------------------
Exact Audio Copy V0.99 prebeta 5 from 4. May 2009
Отчёт EAC об извлечении, выполненном 29. января 2011, 21:13
Wumpscut / Cannibal Anthem - Remix Kultur (Bonus CD)
Дисковод: PIONEER DVD-RW DVRTD10RS   Adapter: 1  ID: 0
Режим чтения                 : Достоверность
Использование точного потока : Да
Отключение кэша аудио        : Да
Использование указателей C2  : Нет
Коррекция смещения при чтении                     : 6
Способность читать области Lead-in и Lead-out     : Нет
Заполнение пропущенных сэмплов тишиной            : Да
Удаление блоков с тишиной в начале и конце        : Нет
При вычислениях CRC использовались нулевые сэмплы : Да
Интерфейс                                         : Встроенный Win32-интерфейс для Win NT/2000
Выходной формат : Внутренние WAV-операции
Формат сэмплов  : 44.100 Гц; 16 бит; стерео
TOC извлечённого CD
     Трек |   Старт  | Длительность | Начальный сектор | Конечный сектор
    ---------------------------------------------------------------------
       1  |  0:00.00 |    4:46.57   |           0      |      21506
       2  |  4:46.57 |    5:29.08   |       21507      |      46189
       3  | 10:15.65 |    3:03.07   |       46190      |      59921
       4  | 13:18.72 |    2:55.19   |       59922      |      73065
       5  | 16:14.16 |    5:46.71   |       73066      |      99086
       6  | 22:01.12 |    4:01.48   |       99087      |     117209
       7  | 26:02.60 |    4:14.42   |      117210      |     136301
       8  | 30:17.27 |    4:53.58   |      136302      |     158334
       9  | 35:11.10 |    4:07.58   |      158335      |     176917
      10  | 39:18.68 |    3:19.07   |      176918      |     191849
      11  | 42:38.00 |    4:34.38   |      191850      |     212437
      12  | 47:12.38 |    3:49.23   |      212438      |     229635
      13  | 51:01.61 |    4:22.59   |      229636      |     249344
      14  | 55:24.45 |    3:52.50   |      249345      |     266794
      15  | 59:17.20 |    5:43.55   |      266795      |     292574
Характеристики диапазона извлечения и сообщения об ошибках
Выбранный диапазон
     Имя файла C:\Раздачи DEHUMANOID\wumpscut  - Cannibal Anthem 2CD\Wumpscut - Cannibal Anthem - Remix Kultur (Bonus CD).wav
     Пиковый уровень 100.0 %
     Качество диапазона 100 %
     CRC теста B21E9DBF
     CRC копии B21E9DBF
     Копирование... OK
Ошибок не произошло
AccurateRip: сводка
Трек  1  точное извлечение (доверие 2)  [BA9D0E9D]
Трек  2  точное извлечение (доверие 2)  [6D3163AB]
Трек  3  точное извлечение (доверие 2)  [02E4F727]
Трек  4  точное извлечение (доверие 2)  [1CDD5ECA]
Трек  5  точное извлечение (доверие 2)  [A205C762]
Трек  6  точное извлечение (доверие 2)  [23EBA8E2]
Трек  7  точное извлечение (доверие 2)  [ECAC8311]
Трек  8  точное извлечение (доверие 2)  [A59D10F9]
Трек  9  точное извлечение (доверие 2)  [37D2CCE8]
Трек 10  точное извлечение (доверие 2)  [517161AD]
Трек 11  точное извлечение (доверие 2)  [C1FB8E04]
Трек 12  точное извлечение (доверие 2)  [455C3B01]
Трек 13  точное извлечение (доверие 2)  [2F03163B]
Трек 14  точное извлечение (доверие 2)  [6C26B8C5]
Трек 15  точное извлечение (доверие 2)  [1849ECCE]
Все треки извлечены точно
Конец отчёта
Код:
Started at: пятница, 04. 02. 2011. - 17:33.46
2 files found
1 -===- D:\Раздачи DEHUMANOID\wumpscut  - Cannibal Anthem 2CD\Wumpscut - Cannibal Anthem - Remix Kultur (Bonus CD).flac
  Extracted successfully
  Conclusion: this track is CDDA with probability 100%
  Tempfile successfully deleted.
2 -===- D:\Раздачи DEHUMANOID\wumpscut  - Cannibal Anthem 2CD\Wumpscut - Cannibal Anthem.flac
  Extracted successfully
  Conclusion: this track is CDDA with probability 100%
  Tempfile successfully deleted.
Finished at: пятница, 04. 02. 2011. - 17:45.10 (operation time: 0:11.24)
Правила, инструкции, FAQ!!!
Торрент  Добавлен [26 июн 2020, 20:53] Скачать торрент Магнет ссылка
Скачать торрент
[ Размер 20.81 КБ / Просмотров 5 ]

Статус
Проверен 
 
Размер  986.82 МБ
Приватный: Нет (DHT включён)
.torrent скачан  0
 


     Отправить личное сообщение
   
Страница 1 из 1
Показать сообщения за:  Поле сортировки  
Начать новую тему Ответить на тему


Сейчас этот форум просматривают: нет зарегистрированных пользователей и гости: 0


Вы не можете начинать темы
Вы не можете отвечать на сообщения
Вы не можете редактировать свои сообщения
Вы не можете удалять свои сообщения
Вы не можете добавлять вложения

Перейти:  
cron