Начать новую тему Ответить на тему
Статистика раздачи
Размер: 361.6 МБ | Добавлен: 26 июн 2020, 17:41 | Скачали: 0
Сидеров: 0  [0 байт/сек]    Личеров: 0  [0 байт/сек]
Пред. тема | След. тема 

Автор
Сообщение

СообщениеДобавлено: 26 июн 2020, 17:41 

Ответить с цитатой 

:wumpscut: (Wumpscut) / Cannibal Anthem [2nd Edition, Digipak]
Жанр: EBM, Industrial
Страна-производитель диска: Germany
Год издания диска: 2006
Издатель (лейбл): Beton Kopf Media
Номер по каталогу: BKM ETAH 50
Страна: Germany
Аудио кодек: FLAC (*.flac)
Тип рипа: image+.cue
Битрейт аудио: lossless
Продолжительность: 00:46:08
Источник (релизер): Личный диск
Наличие сканов в содержимом раздачи: да
Треклист:
01. Herzlich Willkommen 1:10
02. Wir Warten 4:20
03. Die Liebe (Album Edit) 4:55
04. Jesus Antichristus (Album Edit) 4:23
05. Cannibal Anthem 3:59
06. Auf Der Jagd 3:40
07. Pass Auf 5:11
08. Jetzt 3:20
09. Ohne Dich 4:21
10. Hunger 4:12
11. Recht Vor Gnade 6:11
Код:
Exact Audio Copy V0.99 prebeta 5 from 4. May 2009
Отчёт EAC об извлечении, выполненном 28. января 2011, 22:42
Wumpscut / Cannibal Anthem
Дисковод: Optiarc DVD RW AD-7201S   Adapter: 2  ID: 1
Режим чтения                 : Достоверность
Использование точного потока : Да
Отключение кэша аудио        : Да
Использование указателей C2  : Нет
Коррекция смещения при чтении                     : 48
Способность читать области Lead-in и Lead-out     : Нет
Заполнение пропущенных сэмплов тишиной            : Да
Удаление блоков с тишиной в начале и конце        : Нет
При вычислениях CRC использовались нулевые сэмплы : Да
Интерфейс                                         : Встроенный Win32-интерфейс для Win NT/2000
Выходной формат : Внутренние WAV-операции
Формат сэмплов  : 44.100 Гц; 16 бит; стерео
TOC извлечённого CD
     Трек |   Старт  | Длительность | Начальный сектор | Конечный сектор
    ---------------------------------------------------------------------
       1  |  0:00.00 |    1:12.44   |           0      |       5443
       2  |  1:12.44 |    4:22.57   |        5444      |      25150
       3  |  5:35.26 |    4:57.20   |       25151      |      47445
       4  | 10:32.46 |    4:25.27   |       47446      |      67347
       5  | 14:57.73 |    4:01.44   |       67348      |      85466
       6  | 18:59.42 |    3:42.05   |       85467      |     102121
       7  | 22:41.47 |    5:13.39   |      102122      |     125635
       8  | 27:55.11 |    3:22.37   |      125636      |     140822
       9  | 31:17.48 |    4:23.66   |      140823      |     160613
      10  | 35:41.39 |    4:14.62   |      160614      |     179725
      11  | 39:56.26 |    6:11.34   |      179726      |     207584
Характеристики диапазона извлечения и сообщения об ошибках
Выбранный диапазон
     Имя файла D:\Раздачи DEHUMANOID\Wumpscut - Cannibal Anthem\Wumpscut - Cannibal Anthem.wav
     Пиковый уровень 100.0 %
     Качество диапазона 100.0 %
     CRC теста 45435DC0
     CRC копии 45435DC0
     Копирование... OK
Ошибок не произошло
AccurateRip: сводка
Трек  1  нет в базе данных
Трек  2  нет в базе данных
Трек  3  нет в базе данных
Трек  4  нет в базе данных
Трек  5  нет в базе данных
Трек  6  нет в базе данных
Трек  7  нет в базе данных
Трек  8  нет в базе данных
Трек  9  нет в базе данных
Трек 10  нет в базе данных
Трек 11  нет в базе данных
Ни одного трека нет в базе AccurateRip
Конец отчёта
Код:
Started at: пятница, 28. 01. 2011. - 23:19.29
1 file found
1 -===- D:\Раздачи DEHUMANOID\Wumpscut - Cannibal Anthem\Wumpscut - Cannibal Anthem.flac
  Extracted successfully
  Conclusion: this track is CDDA with probability 100%
  Tempfile successfully deleted.
Finished at: пятница, 28. 01. 2011. - 23:24.33 (operation time: 0:05.04)
Правила, инструкции, FAQ!!!
Торрент  Добавлен [26 июн 2020, 17:41] Скачать торрент Магнет ссылка
Скачать торрент
[ Размер 15.08 КБ / Просмотров 12 ]

Статус
Проверен 
 
Размер  361.6 МБ
Приватный: Нет (DHT включён)
.torrent скачан  0
 


     Отправить личное сообщение
   
Страница 1 из 1
Показать сообщения за:  Поле сортировки  
Начать новую тему Ответить на тему


Сейчас этот форум просматривают: нет зарегистрированных пользователей и гости: 0


Вы не можете начинать темы
Вы не можете отвечать на сообщения
Вы не можете редактировать свои сообщения
Вы не можете удалять свои сообщения
Вы не можете добавлять вложения

Перейти:  
cron